  0
SECTION
  2
HEADER
  9
$ACADVER
  1
AC1015
  9
$ACADMAINTVER
 70
    18
  9
$DWGCODEPAGE
  3
ANSI_932
  9
$INSBASE
 10
0.0000019058306862
 20
849.9999953851668
 30
0.0
  9
$EXTMIN
 10
0.0000019058306293
 20
-0.0000046148531965
 30
0.0
  9
$EXTMAX
 10
3371.000001905836
 20
4669.999995385167
 30
0.0
  9
$LIMMIN
 10
0.0
 20
0.0
  9
$LIMMAX
 10
380.0
 20
260.0
  9
$ORTHOMODE
 70
     1
  9
$REGENMODE
 70
     1
  9
$FILLMODE
 70
     1
  9
$QTEXTMODE
 70
     0
  9
$MIRRTEXT
 70
     0
  9
$LTSCALE
 40
10.0
  9
$ATTMODE
 70
     1
  9
$TEXTSIZE
 40
3.5
  9
$TRACEWID
 40
0.05
  9
$TEXTSTYLE
  7
K1
  9
$CLAYER
  8
K-1
  9
$CELTYPE
  6
ByBlock
  9
$CECOLOR
 62
     0
  9
$CELTSCALE
 40
1.0
  9
$DISPSILH
 70
     0
  9
$DIMSCALE
 40
1.0
  9
$DIMASZ
 40
3.0
  9
$DIMEXO
 40
1.0
  9
$DIMDLI
 40
10.0
  9
$DIMRND
 40
0.0
  9
$DIMDLE
 40
0.0
  9
$DIMEXE
 40
1.0
  9
$DIMTP
 40
0.02
  9
$DIMTM
 40
0.02
  9
$DIMTXT
 40
4.0
  9
$DIMCEN
 40
0.0
  9
$DIMTSZ
 40
0.0
  9
$DIMTOL
 70
     0
  9
$DIMLIM
 70
     0
  9
$DIMTIH
 70
     0
  9
$DIMTOH
 70
     0
  9
$DIMSE1
 70
     0
  9
$DIMSE2
 70
     0
  9
$DIMTAD
 70
     3
  9
$DIMZIN
 70
     8
  9
$DIMBLK
  1
Open30
  9
$DIMASO
 70
     1
  9
$DIMSHO
 70
     0
  9
$DIMPOST
  1

  9
$DIMAPOST
  1
"
  9
$DIMALT
 70
     0
  9
$DIMALTD
 70
     2
  9
$DIMALTF
 40
0.0393701
  9
$DIMLFAC
 40
1.0
  9
$DIMTOFL
 70
     1
  9
$DIMTVP
 40
0.0
  9
$DIMTIX
 70
     0
  9
$DIMSOXD
 70
     0
  9
$DIMSAH
 70
     0
  9
$DIMBLK1
  1

  9
$DIMBLK2
  1

  9
$DIMSTYLE
  2
AM_JIS
  9
$DIMCLRD
 70
   256
  9
$DIMCLRE
 70
   256
  9
$DIMCLRT
 70
     7
  9
$DIMTFAC
 40
0.71
  9
$DIMGAP
 40
1.5
  9
$DIMJUST
 70
     0
  9
$DIMSD1
 70
     0
  9
$DIMSD2
 70
     0
  9
$DIMTOLJ
 70
     1
  9
$DIMTZIN
 70
     8
  9
$DIMALTZ
 70
     0
  9
$DIMALTTZ
 70
     0
  9
$DIMUPT
 70
     0
  9
$DIMDEC
 70
     2
  9
$DIMTDEC
 70
     2
  9
$DIMALTU
 70
     2
  9
$DIMALTTD
 70
     2
  9
$DIMTXSTY
  7
K1
  9
$DIMAUNIT
 70
     0
  9
$DIMADEC
 70
     2
  9
$DIMALTRND
 40
0.0
  9
$DIMAZIN
 70
     2
  9
$DIMDSEP
 70
    46
  9
$DIMATFIT
 70
     3
  9
$DIMFRAC
 70
     0
  9
$DIMLDRBLK
  1
Open30
  9
$DIMLUNIT
 70
     2
  9
$DIMLWD
 70
    -1
  9
$DIMLWE
 70
    -1
  9
$DIMTMOVE
 70
     0
  9
$LUNITS
 70
     2
  9
$LUPREC
 70
     2
  9
$SKETCHINC
 40
0.1
  9
$FILLETRAD
 40
0.0
  9
$AUNITS
 70
     0
  9
$AUPREC
 70
     2
  9
$MENU
  1
SSE-M2
  9
$ELEVATION
 40
0.0
  9
$PELEVATION
 40
0.0
  9
$THICKNESS
 40
0.0
  9
$LIMCHECK
 70
     0
  9
$CHAMFERA
 40
0.5
  9
$CHAMFERB
 40
0.5
  9
$CHAMFERC
 40
2.500000000000085
  9
$CHAMFERD
 40
0.7853981633974483
  9
$SKPOLY
 70
     0
  9
$TDCREATE
 40
2455553.393211261
  9
$TDUCREATE
 40
2455553.018211261
  9
$TDUPDATE
 40
2457301.548173866
  9
$TDUUPDATE
 40
2457301.173173866
  9
$TDINDWG
 40
11.0414790856
  9
$TDUSRTIMER
 40
11.0414790856
  9
$USRTIMER
 70
     1
  9
$ANGBASE
 50
0.0
  9
$ANGDIR
 70
     0
  9
$PDMODE
 70
     1
  9
$PDSIZE
 40
0.0
  9
$PLINEWID
 40
0.0
  9
$SPLFRAME
 70
     0
  9
$SPLINETYPE
 70
     5
  9
$SPLINESEGS
 70
     8
  9
$HANDSEED
  5
4F4
  9
$SURFTAB1
 70
     6
  9
$SURFTAB2
 70
     6
  9
$SURFTYPE
 70
     6
  9
$SURFU
 70
     6
  9
$SURFV
 70
     6
  9
$UCSBASE
  2

  9
$UCSNAME
  2

  9
$UCSORG
 10
0.0
 20
0.0
 30
0.0
  9
$UCSXDIR
 10
1.0
 20
0.0
 30
0.0
  9
$UCSYDIR
 10
0.0
 20
1.0
 30
0.0
  9
$UCSORTHOREF
  2

  9
$UCSORTHOVIEW
 70
     0
  9
$UCSORGTOP
 10
0.0
 20
0.0
 30
0.0
  9
$UCSORGBOTTOM
 10
0.0
 20
0.0
 30
0.0
  9
$UCSORGLEFT
 10
0.0
 20
0.0
 30
0.0
  9
$UCSORGRIGHT
 10
0.0
 20
0.0
 30
0.0
  9
$UCSORGFRONT
 10
0.0
 20
0.0
 30
0.0
  9
$UCSORGBACK
 10
0.0
 20
0.0
 30
0.0
  9
$PUCSBASE
  2

  9
$PUCSNAME
  2

  9
$PUCSORG
 10
0.0
 20
0.0
 30
0.0
  9
$PUCSXDIR
 10
1.0
 20
0.0
 30
0.0
  9
$PUCSYDIR
 10
0.0
 20
1.0
 30
0.0
  9
$PUCSORTHOREF
  2

  9
$PUCSORTHOVIEW
 70
     0
  9
$PUCSORGTOP
 10
0.0
 20
0.0
 30
0.0
  9
$PUCSORGBOTTOM
 10
0.0
 20
0.0
 30
0.0
  9
$PUCSORGLEFT
 10
0.0
 20
0.0
 30
0.0
  9
$PUCSORGRIGHT
 10
0.0
 20
0.0
 30
0.0
  9
$PUCSORGFRONT
 10
0.0
 20
0.0
 30
0.0
  9
$PUCSORGBACK
 10
0.0
 20
0.0
 30
0.0
  9
$USERI1
 70
     3
  9
$USERI2
 70
     0
  9
$USERI3
 70
     0
  9
$USERI4
 70
     0
  9
$USERI5
 70
     0
  9
$USERR1
 40
2.5
  9
$USERR2
 40
1.0
  9
$USERR3
 40
15.0
  9
$USERR4
 40
1.0
  9
$USERR5
 40
5.0
  9
$WORLDVIEW
 70
     1
  9
$SHADEDGE
 70
     3
  9
$SHADEDIF
 70
    70
  9
$TILEMODE
 70
     1
  9
$MAXACTVP
 70
    64
  9
$PINSBASE
 10
0.0
 20
0.0
 30
0.0
  9
$PLIMCHECK
 70
     0
  9
$PEXTMIN
 10
-8.812993393387955
 20
-10.80936207865522
 30
-0.0015258207003583
  9
$PEXTMAX
 10
417.0129953761736
 20
296.009363507304
 30
0.0000000349246037
  9
$PLIMMIN
 10
-5.873749732971191
 20
-5.873747825622558
  9
$PLIMMAX
 10
414.0729055404663
 20
291.1369028091431
  9
$UNITMODE
 70
     0
  9
$VISRETAIN
 70
     1
  9
$PLINEGEN
 70
     0
  9
$PSLTSCALE
 70
     1
  9
$TREEDEPTH
 70
  3020
  9
$CMLSTYLE
  2
Standard
  9
$CMLJUST
 70
     0
  9
$CMLSCALE
 40
1.0
  9
$PROXYGRAPHICS
 70
     1
  9
$MEASUREMENT
 70
     1
  9
$CELWEIGHT
370
    -1
  9
$ENDCAPS
280
     0
  9
$JOINSTYLE
280
     0
  9
$LWDISPLAY
290
     0
  9
$INSUNITS
 70
     4
  9
$HYPERLINKBASE
  1

  9
$STYLESHEET
  1

  9
$XEDIT
290
     1
  9
$CEPSNTYPE
380
     0
  9
$PSTYLEMODE
290
     1
  9
$FINGERPRINTGUID
  2
{97BFF4B5-52DE-4C50-AA1D-6F2A6F6CDF0F}
  9
$VERSIONGUID
  2
{727277D5-FD9C-4BE8-8517-A8E3A948FB1C}
  9
$EXTNAMES
290
     1
  9
$PSVPSCALE
 40
0.0
  9
$OLESTARTUP
290
     0
  0
ENDSEC
  0
SECTION
  2
CLASSES
  0
CLASS
  1
ACDBDICTIONARYWDFLT
  2
AcDbDictionaryWithDefault
  3
ObjectDBX Classes
 90
        0
280
     0
281
     0
  0
CLASS
  1
ACDBPLACEHOLDER
  2
AcDbPlaceHolder
  3
ObjectDBX Classes
 90
        0
280
     0
281
     0
  0
CLASS
  1
LAYOUT
  2
AcDbLayout
  3
ObjectDBX Classes
 90
        0
280
     0
281
     0
  0
CLASS
  1
ACME_DOCUMENT
  2
AcMeDbDoc
  3
AcMeServices
 90
    33792
280
     0
281
     0
  0
CLASS
  1
AMGSETTINGSOBJ
  2
AmgSettingsObj
  3
"AcadM|Product Description: AutoCAD Mechanical|Company: Autodesk, Inc."
 90
     1024
280
     0
281
     0
  0
CLASS
  1
ACMESCOPE
  2
AcMeScope
  3
AcMeServices
 90
     1024
280
     0
281
     0
  0
CLASS
  1
ACMECOMMANDHISTORY
  2
AcMeCommandHistory
  3
AcMeServices
 90
    33792
280
     0
281
     0
  0
CLASS
  1
ACIMSYSVARMAN
  2
AcImSysVarManager
  3
AcMeServices
 90
     1024
280
     0
281
     0
  0
CLASS
  1
ACIMREALSYSVAR
  2
AcImRealSysVar
  3
AcMeServices
 90
    33792
280
     0
281
     0
  0
CLASS
  1
ACIMINTSYSVAR
  2
AcImIntSysVar
  3
AcMeServices
 90
     1024
280
     0
281
     0
  0
CLASS
  1
ACMEDRAWINGMAN
  2
AcMeDrawingMan
  3
AcMeServices
 90
    33792
280
     0
281
     0
  0
CLASS
  1
ACMEVIEW
  2
AcMeView
  3
AcMeServices
 90
    33792
280
     0
281
     0
  0
CLASS
  1
ACDBENTITYCACHE
  2
AcMeEntityCache
  3
AcMeServices
 90
    33792
280
     0
281
     0
  0
CLASS
  1
GSMANAGER
  2
AcMeGSManager
  3
AcMeServices
 90
    33792
280
     1
281
     0
  0
CLASS
  1
AMDTINTERNALREACTOR
  2
AmdtInternalReactor
  3
AcMeServices
 90
    33792
280
     0
281
     0
  0
CLASS
  1
ACMESTATEMGR
  2
AcMeStateMgr
  3
AcMeServices
 90
     1024
280
     0
281
     0
  0
CLASS
  1
ACGREFMASTER
  2
AcGrefMaster
  3
AcAttribServices
 90
     1024
280
     0
281
     0
  0
CLASS
  1
ACME_DATABASE
  2
AcMeDbDatabase
  3
AcMeServices
 90
    33792
280
     0
281
     0
  0
CLASS
  1
ACRFINSADJUSTERMGR
  2
AcRfInsAdjusterMgr
  3
AcMeServices
 90
    33792
280
     0
281
     0
  0
CLASS
  1
ACGREFACADMASTER
  2
AcGrefacadMaster
  3
AcGrefServices
 90
    33792
280
     0
281
     0
  0
CLASS
  1
AMIMASTER
  2
AmiMaster
  3
AmiServices
 90
    33792
280
     0
281
     0
  0
CLASS
  1
ACMDATADICTIONARY
  2
AcmDataDictionary
  3
"AcmSymBB|Product Description: AutoCAD Mechanical|Company: Autodesk, Inc."
 90
     1024
280
     0
281
     0
  0
CLASS
  1
ACMDATAENTRYBLOCK
  2
AcmDataEntryBlock
  3
AcmSymBB|Product Description: AutoCAD Mechanical|Company: Autodesk, Inc.
 90
     1024
280
     0
281
     0
  0
CLASS
  1
ACIMSTRSYSVAR
  2
AcImStrSysVar
  3
AcMeServices
 90
     1024
280
     0
281
     0
  0
CLASS
  1
ACMSTANDARDANSI
  2
AcmStandardANSI
  3
"Amdt_StdImp|Product Description: AutoCAD Mechanical|Company: Autodesk, Inc."
 90
    33792
280
     0
281
     0
  0
CLASS
  1
AMGOBJPROPCFG
  2
AmgObjPropCfg
  3
"AmgLay|Product Description: AutoCAD Mechanical|Company: Autodesk, Inc."
 90
     1024
280
     0
281
     0
  0
CLASS
  1
ACMSURFSTANDARDANSI
  2
AcmSurfTextStdANSI
  3
"Amdt_StdImp|Product Description: AutoCAD Mechanical|Company: Autodesk, Inc."
 90
    33792
280
     0
281
     0
  0
CLASS
  1
ACMFCFSTANDARDANSI
  2
AcmFCFStdANSI
  3
"Amdt_StdImp|Product Description: AutoCAD Mechanical|Company: Autodesk, Inc."
 90
    33792
280
     0
281
     0
  0
CLASS
  1
ACMWELDSTANDARDANSI
  2
AcmWeldingStdANSI
  3
"Amdt_StdImp|Product Description: AutoCAD Mechanical|Company: Autodesk, Inc."
 90
    33792
280
     0
281
     0
  0
CLASS
  1
ACMIDSTANDARDANSI
  2
AcmIdStdANSI
  3
"Amdt_StdImp|Product Description: AutoCAD Mechanical|Company: Autodesk, Inc."
 90
    33792
280
     0
281
     0
  0
CLASS
  1
ACMDATUMSTANDARDANSI
  2
AcmDatumStdANSI
  3
"Amdt_StdImp|Product Description: AutoCAD Mechanical|Company: Autodesk, Inc."
 90
    33792
280
     0
281
     0
  0
CLASS
  1
ACMBOMSTANDARDANSI
  2
AcmBOMStdANSI
  3
"Amdt_StdImp|Product Description: AutoCAD Mechanical|Company: Autodesk, Inc."
 90
    33792
280
     0
281
     0
  0
CLASS
  1
ACMDETAILSTANDARDANSI
  2
AmdtDetailSymStdANSI
  3
"Amdt_StdImp|Product Description: AutoCAD Mechanical|Company: Autodesk, Inc."
 90
    33792
280
     0
281
     0
  0
CLASS
  1
ACMSECTIONSTANDARDANSI
  2
AmdtSectionSymStdANSI
  3
"Amdt_StdImp|Product Description: AutoCAD Mechanical|Company: Autodesk, Inc."
 90
    33792
280
     0
281
     0
  0
CLASS
  1
ACMCENTERLINESTANDARDANSI
  2
AmdtCenterLineStdANSI
  3
"Amdt_StdImp|Product Description: AutoCAD Mechanical|Company: Autodesk, Inc."
 90
    33792
280
     0
281
     0
  0
CLASS
  1
ACMNOTESTANDARDANSI
  2
AmdtNoteStdANSI
  3
"Amdt_StdImp|Product Description: AutoCAD Mechanical|Company: Autodesk, Inc."
 90
    33792
280
     0
281
     0
  0
CLASS
  1
ACAMGLAYSTD
  2
AcAmgLayStd
  3
"AmgLay|Product Description: AutoCAD Mechanical|Company: Autodesk, Inc."
 90
     1024
280
     0
281
     0
  0
CLASS
  1
ACAMGDIMSTD
  2
AcAmgDimStd
  3
"AmgDim|Product Description: AutoCAD Mechanical|Company: Autodesk, Inc."
 90
     1024
280
     0
281
     0
  0
CLASS
  1
ACAMGHOLECHARTSTDANSI
  2
AcAmgHoleChartStdANSI
  3
AmgDim|Product Description: AutoCAD Mechanical|Company: Autodesk, Inc.
 90
    33792
280
     0
281
     0
  0
CLASS
  1
ACAMGTITLESTD
  2
AcAmgTitleStd
  3
"AmgTitle|Product Description: AutoCAD Mechanical|Company: Autodesk, Inc."
 90
     1024
280
     0
281
     0
  0
CLASS
  1
ACAMGFILTERDAT
  2
AcAmgFilterDat
  3
"AcadM|Product Description: AutoCAD Mechanical|Company: Autodesk, Inc."
 90
    33792
280
     0
281
     0
  0
CLASS
  1
ACMSTANDARDJIS
  2
AcmStandardJIS
  3
"Amdt_StdImp|Product Description: AutoCAD Mechanical|Company: Autodesk, Inc."
 90
     1024
280
     0
281
     0
  0
CLASS
  1
ACMSURFSTANDARDJIS
  2
AcmSurfTextStdJIS
  3
"Amdt_StdImp|Product Description: AutoCAD Mechanical|Company: Autodesk, Inc."
 90
     1024
280
     0
281
     0
  0
CLASS
  1
ACMFCFSTANDARDJIS98
  2
AcmFCFStdJIS98
  3
"Amdt_StdImp|Product Description: AutoCAD Mechanical|Company: Autodesk, Inc."
 90
     1024
280
     0
281
     0
  0
CLASS
  1
ACMWELDSTANDARDJIS
  2
AcmWeldingStdJIS
  3
"Amdt_StdImp|Product Description: AutoCAD Mechanical|Company: Autodesk, Inc."
 90
     1024
280
     0
281
     0
  0
CLASS
  1
ACMIDSTANDARDJIS
  2
AcmIdStdJIS
  3
"Amdt_StdImp|Product Description: AutoCAD Mechanical|Company: Autodesk, Inc."
 90
     1024
280
     0
281
     0
  0
CLASS
  1
ACMDATUMSTANDARDJIS
  2
AcmDatumStdJIS
  3
"Amdt_StdImp|Product Description: AutoCAD Mechanical|Company: Autodesk, Inc."
 90
     1024
280
     0
281
     0
  0
CLASS
  1
ACMBOMSTANDARDJIS
  2
AcmBOMStdJIS
  3
"Amdt_StdImp|Product Description: AutoCAD Mechanical|Company: Autodesk, Inc."
 90
     1024
280
     0
281
     0
  0
CLASS
  1
ACMDETAILSTANDARDJIS
  2
AmdtDetailSymStdJIS
  3
"Amdt_StdImp|Product Description: AutoCAD Mechanical|Company: Autodesk, Inc."
 90
     1024
280
     0
281
     0
  0
CLASS
  1
ACMSECTIONSTANDARDJIS
  2
AmdtSectionSymStdJIS
  3
"Amdt_StdImp|Product Description: AutoCAD Mechanical|Company: Autodesk, Inc."
 90
     1024
280
     0
281
     0
  0
CLASS
  1
ACMCENTERLINESTANDARDJIS
  2
AmdtCenterLineStdJIS
  3
"Amdt_StdImp|Product Description: AutoCAD Mechanical|Company: Autodesk, Inc."
 90
     1024
280
     0
281
     0
  0
CLASS
  1
ACMNOTESTANDARDJIS
  2
AmdtNoteStdJIS
  3
"Amdt_StdImp|Product Description: AutoCAD Mechanical|Company: Autodesk, Inc."
 90
     1024
280
     0
281
     0
  0
CLASS
  1
ACAMGHOLECHARTSTDJIS
  2
AcAmgHoleChartStdJIS
  3
AmgDim|Product Description: AutoCAD Mechanical|Company: Autodesk, Inc.
 90
     1024
280
     0
281
     0
  0
CLASS
  1
DIMASSOC
  2
AcDbDimAssoc
  3
"AcDbDimAssoc|Product Desc:     AcDim ARX App For Dimension|Company:          Autodesk, Inc.|WEB Address:      www.autodesk.com"
 90
        0
280
     0
281
     0
  0
CLASS
  1
LAYER_INDEX
  2
AcDbLayerIndex
  3
ObjectDBX Classes
 90
    32768
280
     0
281
     0
  0
CLASS
  1
IDBUFFER
  2
AcDbIdBuffer
  3
ObjectDBX Classes
 90
    32768
280
     0
281
     0
  0
CLASS
  1
DICTIONARYVAR
  2
AcDbDictionaryVar
  3
ObjectDBX Classes
 90
        0
280
     0
281
     0
  0
CLASS
  1
ACMSTANDARDISO
  2
AcmStandardISO
  3
"Amdt_StdImp|Product Description: AutoCAD Mechanical|Company: Autodesk, Inc."
 90
    33792
280
     0
281
     0
  0
CLASS
  1
AMDTEDGESTANDARDISO
  2
AmdtEdgeStdISO
  3
"Amdt_StdImp|Product Description: AutoCAD Mechanical|Company: Autodesk, Inc."
 90
    33792
280
     0
281
     0
  0
CLASS
  1
ACMSURFSTANDARDISO
  2
AcmSurfTextStdISO
  3
"Amdt_StdImp|Product Description: AutoCAD Mechanical|Company: Autodesk, Inc."
 90
    33792
280
     0
281
     0
  0
CLASS
  1
ACMFCFSTANDARDISO
  2
AcmFCFStdISO
  3
"Amdt_StdImp|Product Description: AutoCAD Mechanical|Company: Autodesk, Inc."
 90
    33792
280
     0
281
     0
  0
CLASS
  1
ACMWELDSTANDARDISO
  2
AcmWeldingStdISO
  3
"Amdt_StdImp|Product Description: AutoCAD Mechanical|Company: Autodesk, Inc."
 90
    33792
280
     0
281
     0
  0
CLASS
  1
ACMIDSTANDARDISO
  2
AcmIdStdISO
  3
"Amdt_StdImp|Product Description: AutoCAD Mechanical|Company: Autodesk, Inc."
 90
    33792
280
     0
281
     0
  0
CLASS
  1
ACMDATUMSTANDARDISO
  2
AcmDatumStdISO
  3
"Amdt_StdImp|Product Description: AutoCAD Mechanical|Company: Autodesk, Inc."
 90
    33792
280
     0
281
     0
  0
CLASS
  1
ACMBOMSTANDARDISO
  2
AcmBOMStdISO
  3
"Amdt_StdImp|Product Description: AutoCAD Mechanical|Company: Autodesk, Inc."
 90
    33792
280
     0
281
     0
  0
CLASS
  1
ACMDETAILSTANDARDISO
  2
AmdtDetailSymStdISO
  3
"Amdt_StdImp|Product Description: AutoCAD Mechanical|Company: Autodesk, Inc."
 90
    33792
280
     0
281
     0
  0
CLASS
  1
ACMSECTIONSTANDARDISO
  2
AmdtSectionSymStdISO
  3
"Amdt_StdImp|Product Description: AutoCAD Mechanical|Company: Autodesk, Inc."
 90
    33792
280
     0
281
     0
  0
CLASS
  1
ACMCENTERLINESTANDARDISO
  2
AmdtCenterLineStdISO
  3
"Amdt_StdImp|Product Description: AutoCAD Mechanical|Company: Autodesk, Inc."
 90
    33792
280
     0
281
     0
  0
CLASS
  1
ACMNOTESTANDARDISO
  2
AmdtNoteStdISO
  3
"Amdt_StdImp|Product Description: AutoCAD Mechanical|Company: Autodesk, Inc."
 90
    33792
280
     0
281
     0
  0
CLASS
  1
ACAMGHOLECHARTSTDISO
  2
AcAmgHoleChartStdISO
  3
AmgDim|Product Description: AutoCAD Mechanical|Company: Autodesk, Inc.
 90
    33792
280
     0
281
     0
  0
CLASS
  1
AMDTFORMULAUPDATEDISPATCHER
  2
AmdtFormulaUpdateDispatcher
  3
AcMeServices
 90
    33792
280
     0
281
     0
  0
CLASS
  1
STDPART2D
  2
AmgStdPart
  3
AmgStdPart|Product Description: AutoCAD Mechanical|Company: Autodesk, Inc.
 90
    33792
280
     0
281
     1
  0
CLASS
  1
ACMDATAENTRYPART
  2
AcmDataEntryPart
  3
AcmSymBB|Product Description: AutoCAD Mechanical|Company: Autodesk, Inc.
 90
    33792
280
     0
281
     0
  0
CLASS
  1
ACMPARTREF
  2
AcmPartRef
  3
"AcmSymBB|Product Description: AutoCAD Mechanical|Company: Autodesk, Inc."
 90
    33792
280
     0
281
     1
  0
CLASS
  1
ACDBSTDPARTRES_LINE
  2
AcDbStdPartRes_Line
  3
AmgStdPart|Product Description: AutoCAD Mechanical|Company: Autodesk, Inc.
 90
    33792
280
     0
281
     0
  0
CLASS
  1
AMDTNOTE
  2
AmdtNote
  3
"AcmSymBB|Product Description: AutoCAD Mechanical|Company: Autodesk, Inc."
 90
    33792
280
     0
281
     1
  0
CLASS
  1
MATERIAL
  2
AcDbMaterial
  3
ObjectDBX Classes
 90
     1153
280
     0
281
     0
  0
CLASS
  1
VISUALSTYLE
  2
AcDbVisualStyle
  3
ObjectDBX Classes
 90
     4095
280
     0
281
     0
  0
CLASS
  1
TABLESTYLE
  2
AcDbTableStyle
  3
ObjectDBX Classes
 90
     4095
280
     0
281
     0
  0
CLASS
  1
AM_DRAWING_MGR
  2
AcDmDwgMgr
  3
AcMechDwgViewMgmt
 90
    33792
280
     0
281
     0
  0
CLASS
  1
AM_DWG_DOCUMENT
  2
AcDmDwgDocument
  3
AcMechDwgViewMgmt
 90
    33792
280
     0
281
     0
  0
CLASS
  1
AM_DWG_SHEET
  2
AcDmSheet
  3
AcMechDwgViewMgmt
 90
    33792
280
     0
281
     0
  0
CLASS
  1
AM_VIEWDIMPARMAP
  2
AcDmViewDimParMap
  3
AcMechDwgViewMgmt
 90
    33792
280
     0
281
     0
  0
CLASS
  1
AM_DWGMGR_NAME
  2
AcDmDwgMgrName
  3
AcMechDwgViewMgmt
 90
    33792
280
     0
281
     0
  0
CLASS
  1
AMDTMENUSTATEMGR
  2
AmdtMenuStateMgr
  3
McadcomServices
 90
    33792
280
     0
281
     0
  0
CLASS
  1
AMDTMCOMMENUSTATE
  2
AmdtMcomMenuState
  3
McadcomServices
 90
    33792
280
     0
281
     0
  0
CLASS
  1
MAPIAMMOUDLE
  2
MApiAmModule
  3
MApiAmServices
 90
    33792
280
     0
281
     0
  0
CLASS
  1
AMDTADMENUSTATE
  2
AmdtAdMenuState
  3
DesignerServices
 90
    33792
280
     1
281
     0
  0
CLASS
  1
ADAPPL
  2
AcAdAppl
  3
DesignerAssemblies
 90
    33792
280
     0
281
     0
  0
CLASS
  1
DEPMGR
  2
AcAdDepMgr
  3
DesignerAssemblies
 90
    33792
280
     0
281
     0
  0
CLASS
  1
PARAMMGR
  2
AcAdParamMgr
  3
DesignerAssemblies
 90
    33792
280
     0
281
     0
  0
CLASS
  1
PARAMSCOPE
  2
AcAdParamScope
  3
DesignerAssemblies
 90
    33792
280
     0
281
     0
  0
CLASS
  1
NAMEDAPPL
  2
AcAdNamedAppl
  3
DesignerAssemblies
 90
    33792
280
     0
281
     0
  0
CLASS
  1
AMDTDMMENUSTATE
  2
AmdtDmMenuState
  3
AcMechDwgViewMgmt
 90
    33792
280
     1
281
     0
  0
CLASS
  1
AMDTAMMENUSTATE
  2
AmdtAmMenuState
  3
DesignerAssemblies
 90
    33792
280
     0
281
     0
  0
CLASS
  1
ACAMPROJECT
  2
AcAmProject
  3
DesignerAssemblies
 90
    33792
280
     0
281
     0
  0
CLASS
  1
ACAMGRCOMPDEF
  2
AcAmGrCompDef
  3
DesignerAssemblies
 90
    33792
280
     0
281
     0
  0
CLASS
  1
ACCMCONTEXT
  2
AcCmContext
  3
DesignerAssemblies
 90
    33792
280
     0
281
     0
  0
CLASS
  1
ACAMCOMPDEF
  2
AcAmCompDef
  3
DesignerAssemblies
 90
    33792
280
     0
281
     0
  0
CLASS
  1
ACAMCOMPDEFMGR
  2
AcAmCompDefMgr
  3
DesignerAssemblies
 90
    33792
280
     0
281
     0
  0
CLASS
  1
AMCONTEXTMGR
  2
AcAmContextMgr
  3
DesignerAssemblies
 90
    33792
280
     0
281
     0
  0
CLASS
  1
ACAMCONTEXTMODELER
  2
AcAmContextModeler
  3
DesignerAssemblies
 90
    33792
280
     0
281
     0
  0
CLASS
  1
ACRFATTGENMGR
  2
AcRfAttGeneralMgr
  3
AcAttribServices
 90
    33792
280
     0
281
     0
  0
CLASS
  1
ACRFOBJATTMGR
  2
AcRfObjAttGroupMgr
  3
AcAttribServices
 90
    33792
280
     0
281
     0
  0
CLASS
  1
ACRFMCADAPIATTHOLDER
  2
AcRfMCADAPIAttHolder
  3
AcAttribServices
 90
    33792
280
     0
281
     0
  0
CLASS
  1
AMDTSYSATTR
  2
AmdtSystemAttribute
  3
AcAttribServices
 90
    33792
280
     0
281
     0
  0
CLASS
  1
ACMTHREADLINESTANDARDANSI
  2
AmdtThreadLineStdANSI
  3
"Amdt_StdImp|Product Description: AutoCAD Mechanical|Company: Autodesk, Inc."
 90
    33792
280
     0
281
     0
  0
CLASS
  1
ACMTAPERSTANDARDANSI
  2
AcmTaperStdANSI
  3
"Amdt_StdImp|Product Description: AutoCAD Mechanical|Company: Autodesk, Inc."
 90
    33792
280
     0
281
     0
  0
CLASS
  1
ACMTHREADLINESTANDARDJIS
  2
AmdtThreadLineStdJIS
  3
"Amdt_StdImp|Product Description: AutoCAD Mechanical|Company: Autodesk, Inc."
 90
     1024
280
     0
281
     0
  0
CLASS
  1
ACMTAPERSTANDARDJIS
  2
AcmTaperStdJIS
  3
"Amdt_StdImp|Product Description: AutoCAD Mechanical|Company: Autodesk, Inc."
 90
     1024
280
     0
281
     0
  0
CLASS
  1
ACMTHREADLINESTANDARDISO
  2
AmdtThreadLineStdISO
  3
"Amdt_StdImp|Product Description: AutoCAD Mechanical|Company: Autodesk, Inc."
 90
    33792
280
     0
281
     0
  0
CLASS
  1
ACMTAPERSTANDARDISO
  2
AcmTaperStdISO
  3
"Amdt_StdImp|Product Description: AutoCAD Mechanical|Company: Autodesk, Inc."
 90
    33792
280
     0
281
     0
  0
CLASS
  1
CATALOGSTATE
  2
AcAmCatalogState
  3
DesignerAssemblies
 90
    33792
280
     0
281
     0
  0
CLASS
  1
ACAMGRCOMPDEFSET
  2
AcAmGrCompDefSet
  3
DesignerAssemblies
 90
    33792
280
     0
281
     0
  0
CLASS
  1
AMDTBROWSERDBTAB
  2
AmdtBrowserDbTab
  3
McadcomServices
 90
    33792
280
     0
281
     0
  0
CLASS
  1
CBROWSERAPPOBJECT
  2
CBrowserAppObject
  3
McadcomServices
 90
    33792
280
     0
281
     0
  0
CLASS
  1
DM_PLACEHOLDER
  2
AcDmSelsetPlaceholder
  3
McadcomServices
 90
    33792
280
     0
281
     0
  0
CLASS
  1
SORTENTSTABLE
  2
AcDbSortentsTable
  3
ObjectDBX Classes
 90
        0
280
     0
281
     0
  0
CLASS
  1
CAMSSTRUCTBTNSTATE
  2
StructBtnState
  3
DesignerAssemblies
 90
    33792
280
     0
281
     0
  0
CLASS
  1
PLOTSETTINGS
  2
AcDbPlotSettings
  3
ObjectDBX Classes
 90
    32768
280
     0
281
     0
  0
CLASS
  1
SCALE
  2
AcDbScale
  3
ObjectDBX Classes
 90
     1153
280
     0
281
     0
  0
CLASS
  1
MLEADERSTYLE
  2
AcDbMLeaderStyle
  3
ACDB_MLEADERSTYLE_CLASS
 90
    36863
280
     0
281
     0
  0
CLASS
  1
ACMANOOTATIONVIEWSTANDARDANSI
  2
AmdtAnViewStdANSI
  3
"Amdt_StdImp|Product Description: AutoCAD Mechanical|Company: Autodesk, Inc."
 90
    33792
280
     0
281
     0
  0
CLASS
  1
ACMANOOTATIONVIEWSTANDARDJIS
  2
AmdtAnViewStdJIS
  3
"Amdt_StdImp|Product Description: AutoCAD Mechanical|Company: Autodesk, Inc."
 90
     1024
280
     0
281
     0
  0
CLASS
  1
ACMANOOTATIONVIEWSTANDARDISO
  2
AmdtAnViewStdISO
  3
"Amdt_StdImp|Product Description: AutoCAD Mechanical|Company: Autodesk, Inc."
 90
    33792
280
     0
281
     0
  0
CLASS
  1
CELLSTYLEMAP
  2
AcDbCellStyleMap
  3
ObjectDBX Classes
 90
     1152
280
     0
281
     0
  0
CLASS
  1
LARGE_RADIAL_DIMENSION
  2
AcDbRadialDimensionLarge
  3
ObjectDBX Classes
 90
    33793
280
     0
281
     1
  0
CLASS
  1
SOLID_BACKGROUND
  2
AcDbSolidBackground
  3
SCENEOE
 90
    36863
280
     0
281
     0
  0
CLASS
  1
NPOCOLLECTION
  2
AcDbImpNonPersistentObjectsCollection
  3
ObjectDBX Classes
 90
    33921
280
     0
281
     0
  0
CLASS
  1
ACDBSECTIONVIEWSTYLE
  2
AcDbSectionViewStyle
  3
ObjectDBX Classes
 90
     1025
280
     0
281
     0
  0
CLASS
  1
ACDBDETAILVIEWSTYLE
  2
AcDbDetailViewStyle
  3
ObjectDBX Classes
 90
     1025
280
     0
281
     0
  0
CLASS
  1
ACMSECTIONSTANDARDCUSTOM
  2
AmdtSectionSymStdCustom
  3
"Amdt_StdImp|Product Description: AutoCAD Mechanical|Company: Autodesk, Inc."
 90
     1024
280
     0
281
     0
  0
CLASS
  1
ACMDETAILTANDARDCUSTOM
  2
AmdtDetailSymStdCustom
  3
"Amdt_StdImp|Product Description: AutoCAD Mechanical|Company: Autodesk, Inc."
 90
     1024
280
     0
281
     0
  0
CLASS
  1
AMDTEDGESTANDARDJIS
  2
AmdtEdgeStdJIS
  3
"Amdt_StdImp|Product Description: AutoCAD Mechanical|Company: Autodesk, Inc."
 90
     1024
280
     0
281
     0
  0
CLASS
  1
FIELD
  2
AcDbField
  3
ObjectDBX Classes
 90
     1152
280
     0
281
     0
  0
CLASS
  1
FIELDLIST
  2
AcDbFieldList
  3
ObjectDBX Classes
 90
     1152
280
     0
281
     0
  0
CLASS
  1
EXACXREFPANELOBJECT
  2
ExAcXREFPanelObject
  3
EXAC_ESW
 90
    33793
280
     0
281
     0
  0
CLASS
  1
AMDTNOTETEMPLATEDB
  2
AmdtNoteTemplateDB
  3
AcmSymBB|Product Description: AutoCAD Mechanical|Company: Autodesk, Inc.
 90
     1024
280
     0
281
     0
  0
CLASS
  1
RAPIDRTRENDERSETTINGS
  2
AcDbRapidRTRenderSettings
  3
ObjectDBX Classes
 90
    33792
280
     0
281
     0
  0
ENDSEC
  0
SECTION
  2
TABLES
  0
TABLE
  2
VPORT
  5
30
330
0
100
AcDbSymbolTable
 70
     1
  0
VPORT
  5
31
330
30
100
AcDbSymbolTableRecord
100
AcDbViewportTableRecord
  2
*Active
 70
     0
 10
0.0
 20
0.0
 11
1.0
 21
1.0
 12
252.1359871791242
 22
993.778398075533
 13
0.0
 23
0.0
 14
2.5
 24
2.5
 15
10.0
 25
10.0
 16
0.0
 26
0.0
 36
1.0
 17
0.0
 27
0.0
 37
0.0
 40
341.693815075616
 41
2.304737516005121
 42
50.0
 43
0.0
 44
0.0
 50
0.0
 51
0.0
 71
     0
 72
  1000
 73
     1
 74
     2
 75
     0
 76
     0
 77
     0
 78
     0
281
     0
 65
     1
110
0.0
120
0.0
130
0.0
111
1.0
121
0.0
131
0.0
112
0.0
122
1.0
132
0.0
 79
     0
146
0.0
1001
ACAD_NAV_VCDISPLAY
1070
     3
  0
ENDTAB
  0
TABLE
  2
LTYPE
  5
2B
330
0
100
AcDbSymbolTable
 70
    13
  0
LTYPE
  5
2C
330
2B
100
AcDbSymbolTableRecord
100
AcDbLinetypeTableRecord
  2
ByBlock
 70
     0
  3

 72
    65
 73
     0
 40
0.0
  0
LTYPE
  5
2D
330
2B
100
AcDbSymbolTableRecord
100
AcDbLinetypeTableRecord
  2
ByLayer
 70
     0
  3

 72
    65
 73
     0
 40
0.0
  0
LTYPE
  5
10
330
2B
100
AcDbSymbolTableRecord
100
AcDbLinetypeTableRecord
  2
CONTINUOUS
 70
     0
  3
Solid line
 72
    65
 73
     0
 40
0.0
  0
LTYPE
  5
12F
330
2B
100
AcDbSymbolTableRecord
100
AcDbLinetypeTableRecord
  2
CENTERS
 70
     0
  3
0.5,-0.1,0,-0.1
 72
    65
 73
     4
 40
0.7
 49
0.5
 74
     0
 49
-0.1
 74
     0
 49
0.0
 74
     0
 49
-0.1
 74
     0
  0
LTYPE
  5
43B
330
2B
100
AcDbSymbolTableRecord
100
AcDbLinetypeTableRecord
  2
AM_ISO02W050
 70
     0
  3
__ __ __ __ __ __ __ __ __ __ __ __ __ __ __
 72
    65
 73
     2
 40
7.5
 49
6.0
 74
     0
 49
-1.5
 74
     0
  0
LTYPE
  5
43C
330
2B
100
AcDbSymbolTableRecord
100
AcDbLinetypeTableRecord
  2
AM_ISO08W050
 70
     0
  3
____ . ____ . ____ . ____ . ____ . ____ . ____
 72
    65
 73
     4
 40
18.0
 49
12.0
 74
     0
 49
-1.5
 74
     0
 49
3.0
 74
     0
 49
-1.5
 74
     0
  0
LTYPE
  5
43D
330
2B
100
AcDbSymbolTableRecord
100
AcDbLinetypeTableRecord
  2
AM_ISO09W050
 70
     0
  3
_____ . . _____ . . _____ . . ____ .. ____
 72
    65
 73
     6
 40
22.5
 49
12.0
 74
     0
 49
-1.5
 74
     0
 49
3.0
 74
     0
 49
-1.5
 74
     0
 49
3.0
 74
     0
 49
-1.5
 74
     0
  0
LTYPE
  5
43E
330
2B
100
AcDbSymbolTableRecord
100
AcDbLinetypeTableRecord
  2
Amconstr
 70
     0
  3
_______________________
 72
    65
 73
     2
 40
9999.0
 49
9999.0
 74
     0
 49
0.0
 74
     0
  0
LTYPE
  5
43F
330
2B
100
AcDbSymbolTableRecord
100
AcDbLinetypeTableRecord
  2
Amzigzag
 70
     0
  3
/\/-/\/-/\/-/\/-/\/-/\/
 72
    65
 73
     2
 40
11.0001
 49
0.0001
 74
     4
 75
   135
340
440
 46
0.04
 50
0.0
 44
0.0
 45
0.0
 49
-11.0
 74
     0
  0
LTYPE
  5
126
330
2B
100
AcDbSymbolTableRecord
100
AcDbLinetypeTableRecord
  2
CENTER
 70
     0
  3
0.5,-0.1,0,-0.1____ _ ____ _ ____ _ ____ _ ____
 72
    65
 73
     4
 40
0.7
 49
0.5
 74
     0
 49
-0.1
 74
     0
 49
0.0
 74
     0
 49
-0.1
 74
     0
  0
LTYPE
  5
46E
330
2B
100
AcDbSymbolTableRecord
100
AcDbLinetypeTableRecord
  2
PHANTOM2
 70
     0
  3
Phantom (.5x) ___ _ _ ___ _ _ ___ _ _ ___ _ _
 72
    65
 73
     6
 40
1.25
 49
0.625
 74
     0
 49
-0.125
 74
     0
 49
0.125
 74
     0
 49
-0.125
 74
     0
 49
0.125
 74
     0
 49
-0.125
 74
     0
  0
LTYPE
  5
454
330
2B
100
AcDbSymbolTableRecord
100
AcDbLinetypeTableRecord
  2
ACJISTGB
 70
     0
  3
__ . . __ . .
 72
    65
 73
     6
 40
9.0
 49
4.0
 74
     0
 49
-1.0
 74
     0
 49
1.0
 74
     0
 49
-1.0
 74
     0
 49
1.0
 74
     0
 49
-1.0
 74
     0
  0
LTYPE
  5
455
330
2B
100
AcDbSymbolTableRecord
100
AcDbLinetypeTableRecord
  2
ACJISTGL
 70
     0
  3
_ _ _ _ _
 72
    65
 73
     2
 40
3.0
 49
2.0
 74
     0
 49
-1.0
 74
     0
  0
LTYPE
  5
157
330
2B
100
AcDbSymbolTableRecord
100
AcDbLinetypeTableRecord
  2
HIDDEN
 70
     0
  3
0.1,-0.1Hidden __ __ __ __ __ __ __ __ __ __ __
 72
    65
 73
     2
 40
0.2
 49
0.1
 74
     0
 49
-0.1
 74
     0
  0
LTYPE
  5
1F7
330
2B
100
AcDbSymbolTableRecord
100
AcDbLinetypeTableRecord
  2
PHANTOM
 70
     0
  3
0.4,-0.1,0,-0.1,0,-0.1Phantom ______  __  __  _
 72
    65
 73
     6
 40
0.7000000000000001
 49
0.4
 74
     0
 49
-0.1
 74
     0
 49
0.0
 74
     0
 49
-0.1
 74
     0
 49
0.0
 74
     0
 49
-0.1
 74
     0
  0
ENDTAB
  0
TABLE
  2
LAYER
  5
1C
102
{ACAD_XDICTIONARY
360
1D
102
}
330
0
100
AcDbSymbolTable
 70
     8
  0
LAYER
  5
6
102
{ACAD_XDICTIONARY
360
7
102
}
330
1C
100
AcDbSymbolTableRecord
100
AcDbLayerTableRecord
  2
0
 70
     0
 62
     7
  6
CONTINUOUS
370
    -3
390
9
  0
LAYER
  5
52
102
{ACAD_XDICTIONARY
360
53
102
}
330
1C
100
AcDbSymbolTableRecord
100
AcDbLayerTableRecord
  2
K-1
 70
     0
 62
     7
  6
CONTINUOUS
370
     0
390
9
  0
LAYER
  5
186
102
{ACAD_XDICTIONARY
360
187
102
}
330
1C
100
AcDbSymbolTableRecord
100
AcDbLayerTableRecord
  2
SUNPO
 70
     0
 62
     1
  6
CONTINUOUS
370
     0
390
9
  0
LAYER
  5
228
102
{ACAD_XDICTIONARY
360
229
102
}
330
1C
100
AcDbSymbolTableRecord
100
AcDbLayerTableRecord
  2
KIKI
 70
     0
 62
     7
  6
CONTINUOUS
370
     0
390
9
  0
LAYER
  5
192
330
1C
100
AcDbSymbolTableRecord
100
AcDbLayerTableRecord
  2
Defpoints
 70
     0
 62
     7
  6
CONTINUOUS
290
     0
370
    -3
390
9
  0
LAYER
  5
11B
102
{ACAD_XDICTIONARY
360
11C
102
}
330
1C
100
AcDbSymbolTableRecord
100
AcDbLayerTableRecord
  2
Sunpou
 70
     0
 62
     1
  6
CONTINUOUS
290
     0
370
    -3
390
9
  0
LAYER
  5
8B
102
{ACAD_XDICTIONARY
360
8C
102
}
330
1C
100
AcDbSymbolTableRecord
100
AcDbLayerTableRecord
  2
A3WAKU
 70
     0
 62
     7
  6
CONTINUOUS
370
    -3
390
9
  0
LAYER
  5
6C
102
{ACAD_XDICTIONARY
360
6D
102
}
330
1C
100
AcDbSymbolTableRecord
100
AcDbLayerTableRecord
  2
A4WAKU
 70
     0
 62
     7
  6
CONTINUOUS
370
    -3
390
9
  0
ENDTAB
  0
TABLE
  2
STYLE
  5
28
330
0
100
AcDbSymbolTable
 70
     7
  0
STYLE
  5
29
330
28
100
AcDbSymbolTableRecord
100
AcDbTextStyleTableRecord
  2
STANDARD
 70
     0
 40
0.0
 41
1.0
 50
0.0
 71
     0
 42
0.2
  3
ISOCP.SHX
  4

  0
STYLE
  5
39
330
28
100
AcDbSymbolTableRecord
100
AcDbTextStyleTableRecord
  2
K1
 70
     0
 40
0.0
 41
0.8
 50
0.0
 71
     0
 42
3.5
  3
SSE
  4
BIGFONT
  0
STYLE
  5
440
330
28
100
AcDbSymbolTableRecord
100
AcDbTextStyleTableRecord
  2

 70
     1
 40
0.0
 41
1.0
 50
0.0
 71
     0
 42
2.5
  3
ltypeshp.shx
  4

  0
STYLE
  5
468
330
28
100
AcDbSymbolTableRecord
100
AcDbTextStyleTableRecord
  2
ACANSTS
 70
     0
 40
1.0
 41
1.0
 50
0.0
 71
     0
 42
2.5
  3
romans.shx
  4
extfont.shx
  0
STYLE
  5
44D
330
28
100
AcDbSymbolTableRecord
100
AcDbTextStyleTableRecord
  2
ACJISTS
 70
     0
 40
1.0
 41
1.0
 50
0.0
 71
     0
 42
2.5
  3
isocp.shx
  4
extfont.shx
  0
STYLE
  5
450
330
28
100
AcDbSymbolTableRecord
100
AcDbTextStyleTableRecord
  2
ACJISGDT
 70
     0
 40
0.0
 41
1.0
 50
0.0
 71
     0
 42
2.5
  3
amgdt.shx
  4

  0
STYLE
  5
472
330
28
100
AcDbSymbolTableRecord
100
AcDbTextStyleTableRecord
  2
ACISOTS
 70
     0
 40
1.0
 41
1.0
 50
0.0
 71
     0
 42
2.5
  3
isocp.shx
  4
extfont.shx
  0
ENDTAB
  0
TABLE
  2
VIEW
  5
2E
330
0
100
AcDbSymbolTable
 70
     0
  0
ENDTAB
  0
TABLE
  2
UCS
  5
2F
330
0
100
AcDbSymbolTable
 70
     0
  0
ENDTAB
  0
TABLE
  2
APPID
  5
35
330
0
100
AcDbSymbolTable
 70
     8
  0
APPID
  5
36
330
35
100
AcDbSymbolTableRecord
100
AcDbRegAppTableRecord
  2
ACAD
 70
     0
  0
APPID
  5
14C
330
35
100
AcDbSymbolTableRecord
100
AcDbRegAppTableRecord
  2
GENIUS_GENODEF_13
 70
     0
  0
APPID
  5
14B
330
35
100
AcDbSymbolTableRecord
100
AcDbRegAppTableRecord
  2
GENIUS_GENREC_14
 70
     0
  0
APPID
  5
14D
330
35
100
AcDbSymbolTableRecord
100
AcDbRegAppTableRecord
  2
GENIUS_GENOBJ-N-REC_13
 70
     0
  0
APPID
  5
3F5
330
35
100
AcDbSymbolTableRecord
100
AcDbRegAppTableRecord
  2
ACAD_DSTYLE_DIMRADIAL_EXTENSION
 70
     0
  0
APPID
  5
1C5
330
35
100
AcDbSymbolTableRecord
100
AcDbRegAppTableRecord
  2
ACAD_DSTYLE_DIMINSPECT
 70
     0
  0
APPID
  5
34
330
35
100
AcDbSymbolTableRecord
100
AcDbRegAppTableRecord
  2
ACAD_NAV_VCDISPLAY
 70
     0
  0
APPID
  5
4BF
330
35
100
AcDbSymbolTableRecord
100
AcDbRegAppTableRecord
  2
ACATTRIBSERVICES
 70
     0
  0
ENDTAB
  0
TABLE
  2
DIMSTYLE
  5
37
330
0
100
AcDbSymbolTable
 70
    13
100
AcDbDimStyleTable
 71
     5
340
38
340
40
340
41
340
42
340
47
  0
DIMSTYLE
105
38
330
37
100
AcDbSymbolTableRecord
100
AcDbDimStyleTableRecord
  2
AM_JIS
 70
     0
  4
"
 41
3.0
 42
1.0
 43
10.0
 44
1.0
 47
0.02
 48
0.02
 73
     0
 74
     0
 77
     3
 78
     8
 79
     2
140
4.0
141
0.0
143
0.0393701
146
0.71
147
1.5
172
     1
176
   256
177
   256
178
     7
179
     2
271
     2
272
     2
284
     8
340
39
341
3A
342
3A
371
    -1
372
    -1
  0
DIMSTYLE
105
3F4
102
{ACAD_REACTORS
330
3EA
102
}
330
37
100
AcDbSymbolTableRecord
100
AcDbDimStyleTableRecord
  2
AM_JIS$3
 70
     0
  4
"
 41
3.0
 42
1.0
 43
10.0
 44
1.0
 47
0.02
 48
0.02
 73
     0
 77
     3
 78
     8
 79
     2
140
4.0
141
0.0
143
0.0393701
146
0.71
147
1.5
176
   256
177
   256
178
     7
179
     2
271
     2
272
     2
284
     8
340
39
341
3A
342
3A
371
    -1
372
    -1
  0
DIMSTYLE
105
4B0
330
37
100
AcDbSymbolTableRecord
100
AcDbDimStyleTableRecord
  2
AM_JIS$4
 70
     0
  4
"
 41
3.0
 42
1.0
 43
10.0
 44
1.0
 47
0.02
 48
0.02
 73
     0
 74
     0
 77
     3
 78
     8
 79
     2
140
4.0
141
0.0
143
0.0393701
146
0.71
147
1.5
172
     1
176
   256
177
   256
178
     7
179
     2
271
     2
272
     2
284
     8
288
     1
340
39
341
3A
342
3A
371
    -1
372
    -1
  0
DIMSTYLE
105
4B1
330
37
100
AcDbSymbolTableRecord
100
AcDbDimStyleTableRecord
  2
AM_JIS$6
 70
     0
  4
"
 41
3.0
 42
1.0
 43
10.0
 44
1.0
 47
0.02
 48
0.02
 73
     0
 74
     0
 78
     8
 79
     2
140
4.0
141
0.0
143
0.0393701
146
0.71
147
1.5
172
     1
176
   256
177
   256
178
     7
179
     2
271
     2
272
     2
284
     8
340
39
341
3A
342
3A
371
    -1
372
    -1
  0
DIMSTYLE
105
4B2
330
37
100
AcDbSymbolTableRecord
100
AcDbDimStyleTableRecord
  2
AM_JIS$7
 70
     0
  4
"
 41
3.0
 42
1.0
 43
10.0
 44
1.0
 47
0.02
 48
0.02
 73
     0
 74
     0
 77
     3
 78
     8
 79
     2
140
4.0
141
0.0
143
0.0393701
146
0.71
147
1.5
172
     1
176
   256
177
   256
178
     7
179
     2
271
     2
272
     2
280
     3
284
     8
340
39
341
3A
342
3A
371
    -1
372
    -1
  0
DIMSTYLE
105
4B3
330
37
100
AcDbSymbolTableRecord
100
AcDbDimStyleTableRecord
  2
AM_JIS$SF
 70
     0
  4
"
 41
3.0
 42
1.0
 43
10.0
 44
1.0
 47
0.1
 48
0.1
 73
     0
 74
     0
 75
     1
 76
     1
 77
     3
 78
     8
 79
     2
140
4.0
141
0.0
143
0.0393701
146
0.71
147
1.5
172
     1
176
   256
177
   256
178
     7
271
     2
272
     2
283
     0
284
     8
340
39
341
3A
342
3A
371
    -1
372
    -1
  0
DIMSTYLE
105
4B4
330
37
100
AcDbSymbolTableRecord
100
AcDbDimStyleTableRecord
  2
AM_JIS$SH
 70
     0
  4
"
 41
3.0
 42
1.0
 43
10.0
 44
1.0
 47
0.1
 48
0.1
 73
     0
 74
     0
 75
     1
 76
     1
 77
     3
 78
     8
 79
     2
140
4.0
141
0.0
143
0.0393701
144
2.0
146
0.71
147
1.5
172
     1
173
     1
176
   256
177
   256
178
     7
271
     2
272
     2
283
     0
284
     8
340
39
341
3A
343
43
344
3A
371
    -1
372
    -1
  0
DIMSTYLE
105
4AF
330
37
100
AcDbSymbolTableRecord
100
AcDbDimStyleTableRecord
  2
AM_JIS$2
 70
     0
  4
"
 41
3.0
 42
1.0
 43
10.0
 44
1.0
 47
0.02
 48
0.02
 73
     0
 74
     0
 77
     3
 78
     8
 79
     2
140
4.0
141
0.0
143
0.0393701
146
0.71
147
1.5
172
     1
176
   256
177
   256
178
     7
179
     2
271
     2
272
     2
284
     8
289
     2
340
39
341
3A
342
3A
371
    -1
372
    -1
  0
DIMSTYLE
105
196
102
{ACAD_REACTORS
330
185
330
197
330
1A6
330
1B5
330
1DC
330
1FC
330
3B4
330
3C3
330
3D0
330
3DD
330
333
330
340
330
34D
330
35A
330
367
330
374
330
381
330
38E
330
39B
330
3A8
102
}
330
37
100
AcDbSymbolTableRecord
100
AcDbDimStyleTableRecord
  2
AM_JIS$0
 70
     0
  4
"
 41
3.0
 42
1.0
 43
10.0
 44
1.0
 47
0.02
 48
0.02
 73
     0
 74
     0
 77
     3
 78
     8
 79
     2
140
4.0
141
0.0
143
0.0393701
146
0.71
147
1.5
172
     1
176
   256
177
   256
178
     7
179
     2
271
     2
272
     2
284
     8
340
39
341
3A
342
3A
371
    -1
372
    -1
  0
DIMSTYLE
105
42
330
37
100
AcDbSymbolTableRecord
100
AcDbDimStyleTableRecord
  2
AM_ISO$SH
 70
     0
  4
"
 41
2.5
 42
1.0
 43
10.0
 44
1.0
 47
0.1
 48
0.1
 73
     0
 74
     0
 75
     1
 76
     1
 77
     1
 78
     8
 79
     2
140
3.5
141
0.0
143
0.0393701
144
2.0
146
0.71
147
1.5
172
     1
173
     1
176
   256
177
   256
178
     2
271
     2
272
     3
274
     4
283
     0
284
     8
340
29
343
43
371
    -1
372
    -1
  0
DIMSTYLE
105
47
330
37
100
AcDbSymbolTableRecord
100
AcDbDimStyleTableRecord
  2
AM_JIS_PCD
 70
     0
  4
"
 41
3.0
 42
1.0
 43
10.0
 44
1.0
 47
0.02
 48
0.02
 73
     0
 74
     0
 77
     3
 78
     8
 79
     2
140
4.0
141
0.0
143
0.0393701
146
0.71
147
1.5
172
     1
176
   256
177
   256
178
     7
179
     2
271
     2
272
     2
284
     8
288
     1
289
     2
340
39
341
3A
342
3A
371
    -1
372
    -1
  0
DIMSTYLE
105
40
330
37
100
AcDbSymbolTableRecord
100
AcDbDimStyleTableRecord
  2
\U+03C6_AM_JIS
 70
     0
  3
%%c<>
  4
"
 41
3.0
 42
0.4999999999999997
 43
10.0
 44
1.0
 47
0.02
 48
0.02
 73
     0
 74
     0
 77
     3
 78
     8
 79
     2
140
4.0
141
0.0
143
0.0393701
146
0.71
147
1.5
172
     1
176
   256
177
   256
178
     7
271
     2
272
     2
283
     0
284
     8
289
     2
340
39
341
3A
342
3A
371
    -1
372
    -1
  0
DIMSTYLE
105
41
330
37
100
AcDbSymbolTableRecord
100
AcDbDimStyleTableRecord
  2
PCD_AM_JIS
 70
     0
  3
P.C.D<>
  4
"
 41
3.0
 42
0.4999999999999997
 43
10.0
 44
1.0
 47
0.02
 48
0.02
 73
     0
 74
     0
 77
     3
 78
     8
 79
     2
140
4.0
141
0.0
143
0.0393701
146
0.71
147
1.5
172
     1
176
   256
177
   256
178
     7
271
     8
272
     8
283
     0
284
     8
289
     2
340
39
341
3A
342
3A
371
    -1
372
    -1
  0
ENDTAB
  0
TABLE
  2
BLOCK_RECORD
  5
1
330
0
100
AcDbSymbolTable
 70
    37
  0
BLOCK_RECORD
  5
2
102
{ACAD_XDICTIONARY
360
3
102
}
330
1
100
AcDbSymbolTableRecord
100
AcDbBlockTableRecord
  2
*Model_Space
340
12
  0
BLOCK_RECORD
  5
15
102
{ACAD_XDICTIONARY
360
16
102
}
330
1
100
AcDbSymbolTableRecord
100
AcDbBlockTableRecord
  2
*Paper_Space
340
1A
  0
BLOCK_RECORD
  5
43
330
1
100
AcDbSymbolTableRecord
100
AcDbBlockTableRecord
  2
GENAXEH
340
0
  0
BLOCK_RECORD
  5
3A
330
1
100
AcDbSymbolTableRecord
100
AcDbBlockTableRecord
  2
_Open30
340
0
102
{BLKREFS
331
339
331
33A
331
346
331
347
331
353
331
354
331
360
331
361
331
36D
331
36E
331
37A
331
37B
331
387
331
388
331
394
331
395
331
3A1
331
3A2
331
3AD
331
3AE
331
3BD
331
3BE
331
3C9
331
3CA
331
3D6
331
3D7
331
3E3
331
3E4
331
3F0
331
18E
331
18F
331
19F
331
1A0
331
1AE
331
1AF
331
1BE
331
1BF
331
1E4
331
1E5
331
206
331
207
102
}
  0
BLOCK_RECORD
  5
66
102
{ACAD_XDICTIONARY
360
67
102
}
330
1
100
AcDbSymbolTableRecord
100
AcDbBlockTableRecord
  2
表題覧_ver.1
340
0
310
2800000020000000200000000100080000000000000400000000000000000000000000000000000000000000000080000080000000808000800000008000800080800000C0C0C000C0DCC000F0CAA6000020400000206000002080000020A0000020C0000020E00000400000004020000040400000406000004080000040A0
310
000040C0000040E00000600000006020000060400000606000006080000060A0000060C0000060E00000800000008020000080400000806000008080000080A0000080C0000080E00000A0000000A0200000A0400000A0600000A0800000A0A00000A0C00000A0E00000C0000000C0200000C0400000C0600000C0800000C0
310
A00000C0C00000C0E00000E0000000E0200000E0400000E0600000E0800000E0A00000E0C00000E0E00040000000400020004000400040006000400080004000A0004000C0004000E00040200000402020004020400040206000402080004020A0004020C0004020E000404000004040200040404000404060004040800040
310
40A0004040C0004040E00040600000406020004060400040606000406080004060A0004060C0004060E00040800000408020004080400040806000408080004080A0004080C0004080E00040A0000040A0200040A0400040A0600040A0800040A0A00040A0C00040A0E00040C0000040C0200040C0400040C0600040C08000
310
40C0A00040C0C00040C0E00040E0000040E0200040E0400040E0600040E0800040E0A00040E0C00040E0E00080000000800020008000400080006000800080008000A0008000C0008000E00080200000802020008020400080206000802080008020A0008020C0008020E00080400000804020008040400080406000804080
310
008040A0008040C0008040E00080600000806020008060400080606000806080008060A0008060C0008060E00080800000808020008080400080806000808080008080A0008080C0008080E00080A0000080A0200080A0400080A0600080A0800080A0A00080A0C00080A0E00080C0000080C0200080C0400080C0600080C0
310
800080C0A00080C0C00080C0E00080E0000080E0200080E0400080E0600080E0800080E0A00080E0C00080E0E000C0000000C0002000C0004000C0006000C0008000C000A000C000C000C000E000C0200000C0202000C0204000C0206000C0208000C020A000C020C000C020E000C0400000C0402000C0404000C0406000C0
310
408000C040A000C040C000C040E000C0600000C0602000C0604000C0606000C0608000C060A000C060C000C060E000C0800000C0802000C0804000C0806000C0808000C080A000C080C000C080E000C0A00000C0A02000C0A04000C0A06000C0A08000C0A0A000C0A0C000C0A0E000C0C00000C0C02000C0C04000C0C06000
310
C0C08000C0C0A000F0FBFF00A4A0A000808080000000FF0000FF000000FFFF00FF000000FF00FF00FFFF0000FFFFFF0000000000000000000000000000000000000000000000000000000000000000000000000000000000000000000000000000000000000000000000000000000000000000000000000000000000000000
310
00000000000000000000000000000000000000000000000000000000000000000000000000000000000000000000000000000000000000000000000000000000000000000000000000000000000000000000000000000000000000000000000000000000000000000000000000000000000000000000000000000000000000
310
00000000000000000000000000000000000000000000000000000000000000000000000000000000000000000000000000000000000000000000000000000000000000000000000000000000000000000000000000000000000000000000000000000000000000000000000000000000000000000000000000000000000000
310
00000000000000000000000000000000000000000000000000000000000000000000000000000000000000000000000000000000000000000000000000000000000000000000000000000000000000000000000000FFFFFFFFFF00000000000000000000FFFFFFFFFFFFFFFFFFFFFFFFFF00000000FFFFFFFFFF0000000000
310
0000000000FFFFFFFFFFFFFFFFFFFFFFFF0000000000FFFFFFFFFF0000000000000000000000000000000000000000000000000000FFFFFFFFFFFF0000FFFFFF00000000000000FFFFFFFFFF000000000000000000FFFFFFFFFFFF000000000000000000000000FFFFFFFFFF00000000000000000000000000000000000000
310
0000000000FFFFFFFFFFFF00FFFFFFFFFFFFFFFF0000000000000000000000000000000000000000000000000000000000000000000000000000000000000000000000000000000000000000000000000000000000000000000000000000000000000000000000000000000000000000000000000000000000000000000000
310
00000000000000000000000000000000000000000000000000000000000000000000000000000000000000000000000000000000000000000000000000000000000000000000000000000000000000000000000000000000000000000000000000000000000000000000000000000000000000000000000000000000000000
310
00000000000000000000000000000000000000000000000000000000000000000000000000000000000000000000000000000000000000000000000000000000000000000000000000000000000000000000000000000000000000000000000000000000000000000000000000000000000000000000000000000000000000
310
0000000000000000000000000000000000000000000000000000000000000000000000000000000000000000000000000000000000000000
102
{BLKREFS
331
65
102
}
1001
ACAD
1000
DesignCenter Data
1002
{
1070
     1
1070
     4
1002
}
  0
BLOCK_RECORD
  5
82
102
{ACAD_XDICTIONARY
360
83
102
}
330
1
100
AcDbSymbolTableRecord
100
AcDbBlockTableRecord
  2
流用枠1-A
340
0
102
{BLKREFS
331
81
331
96
102
}
1001
ACAD
1000
DesignCenter Data
1002
{
1070
     1
1070
     4
1002
}
  0
BLOCK_RECORD
  5
A1
102
{ACAD_XDICTIONARY
360
A2
102
}
330
1
100
AcDbSymbolTableRecord
100
AcDbBlockTableRecord
  2
配布先表
340
0
102
{BLKREFS
331
A0
102
}
  0
BLOCK_RECORD
  5
B3
102
{ACAD_XDICTIONARY
360
B4
102
}
330
1
100
AcDbSymbolTableRecord
100
AcDbBlockTableRecord
  2
普通公差&規格表
340
0
102
{BLKREFS
331
B2
102
}
  0
BLOCK_RECORD
  5
2E5
330
1
100
AcDbSymbolTableRecord
100
AcDbBlockTableRecord
  2
B03005A
340
0
102
{BLKREFS
331
2E4
102
}
  0
BLOCK_RECORD
  5
2E1
330
1
100
AcDbSymbolTableRecord
100
AcDbBlockTableRecord
  2
B03008A
340
0
102
{BLKREFS
331
2E0
102
}
  0
BLOCK_RECORD
  5
9C
102
{ACAD_XDICTIONARY
360
9D
102
}
330
1
100
AcDbSymbolTableRecord
100
AcDbBlockTableRecord
  2
WAKUA3_ver.1
340
0
310
2800000020000000200000000100080000000000000400000000000000000000000000000000000000000000000080000080000000808000800000008000800080800000C0C0C000C0DCC000F0CAA6000020400000206000002080000020A0000020C0000020E00000400000004020000040400000406000004080000040A0
310
000040C0000040E00000600000006020000060400000606000006080000060A0000060C0000060E00000800000008020000080400000806000008080000080A0000080C0000080E00000A0000000A0200000A0400000A0600000A0800000A0A00000A0C00000A0E00000C0000000C0200000C0400000C0600000C0800000C0
310
A00000C0C00000C0E00000E0000000E0200000E0400000E0600000E0800000E0A00000E0C00000E0E00040000000400020004000400040006000400080004000A0004000C0004000E00040200000402020004020400040206000402080004020A0004020C0004020E000404000004040200040404000404060004040800040
310
40A0004040C0004040E00040600000406020004060400040606000406080004060A0004060C0004060E00040800000408020004080400040806000408080004080A0004080C0004080E00040A0000040A0200040A0400040A0600040A0800040A0A00040A0C00040A0E00040C0000040C0200040C0400040C0600040C08000
310
40C0A00040C0C00040C0E00040E0000040E0200040E0400040E0600040E0800040E0A00040E0C00040E0E00080000000800020008000400080006000800080008000A0008000C0008000E00080200000802020008020400080206000802080008020A0008020C0008020E00080400000804020008040400080406000804080
310
008040A0008040C0008040E00080600000806020008060400080606000806080008060A0008060C0008060E00080800000808020008080400080806000808080008080A0008080C0008080E00080A0000080A0200080A0400080A0600080A0800080A0A00080A0C00080A0E00080C0000080C0200080C0400080C0600080C0
310
800080C0A00080C0C00080C0E00080E0000080E0200080E0400080E0600080E0800080E0A00080E0C00080E0E000C0000000C0002000C0004000C0006000C0008000C000A000C000C000C000E000C0200000C0202000C0204000C0206000C0208000C020A000C020C000C020E000C0400000C0402000C0404000C0406000C0
310
408000C040A000C040C000C040E000C0600000C0602000C0604000C0606000C0608000C060A000C060C000C060E000C0800000C0802000C0804000C0806000C0808000C080A000C080C000C080E000C0A00000C0A02000C0A04000C0A06000C0A08000C0A0A000C0A0C000C0A0E000C0C00000C0C02000C0C04000C0C06000
310
C0C08000C0C0A000F0FBFF00A4A0A000808080000000FF0000FF000000FFFF00FF000000FF00FF00FFFF0000FFFFFF0000000000000000000000000000000000000000000000000000000000000000000000000000000000000000000000000000000000000000000000000000000000000000000000000000000000000000
310
000000000000000000000000000000000000000000000000000000000000000000000000000000000000000000000000000000000000000000000000000000000000000000000000000000000000000000000000000000000000000000000000000000000000000000000000000000000000FEFEFEFEFEFEFEFEFEFEFEFEFE
310
FEFEFEFEFEFEFEFEFEFEFEFEFEFEFEFEFE0000FE0000000000000000000000000000FEFDFDFEFEFEFDFDFEA7A7FEFEFEFE0000FE0000000000000000000000000000FEFDFDA7A7FEFEFEA7FEFEFEFEFEFE0000FE00000000000000000000000000000000000000000000FEA7FDA7A7FEFE0000FE0000000000000000000000
310
0000000000000000000000000000000000FD0000FE00000000000000000000000000000000000000000000000000000000FD0000FE00000000000000000000000000000000000000000000000000000000FD0000FE00000000000000000000000000000000000000000000000000000000FD0000FE00000000000000000000
310
000000000000000000000000000000000000FD0000FE00000000000000000000000000000000000000000000000000000000FD0000FE00000000000000000000000000000000000000000000000000000000FD0000FE00000000000000000000000000000000000000000000000000000000FD0000FE000000000000000000
310
00000000000000000000000000000000000000FD0000FE00000000000000000000000000000000000000000000000000000000FD0000FE00000000000000000000000000000000000000000000000000000000FD0000FE00000000000000000000000000000000000000000000000000000000FD0000FE0000000000000000
310
0000000000000000000000000000000000000000FD0000FE00000000000000000000000000000000000000000000000000000000FD0000FE00000000000000000000000000000000000000000000000000000000FD0000FEFEFEFEFEFEFEFEFEFEFEFEFEFEFEFEFEFEFEFEFEFEFEFEFEFEFEFEFEFD00000000000000000000
310
00000000000000000000000000000000000000000000000000000000000000000000000000000000000000000000000000000000000000000000000000000000000000000000000000000000000000000000000000000000000000000000000000000000000000000000000000000000000000000000000000000000000000
310
0000000000000000000000000000000000000000000000000000000000000000000000000000000000000000000000000000000000000000
102
{BLKREFS
331
9B
102
}
  0
BLOCK_RECORD
  5
D8
330
1
100
AcDbSymbolTableRecord
100
AcDbBlockTableRecord
  2
WAKUA3
340
0
310
2800000020000000200000000100080000000000000400000000000000000000000000000000000000000000000080000080000000808000800000008000800080800000C0C0C000C0DCC000F0CAA6000020400000206000002080000020A0000020C0000020E00000400000004020000040400000406000004080000040A0
310
000040C0000040E00000600000006020000060400000606000006080000060A0000060C0000060E00000800000008020000080400000806000008080000080A0000080C0000080E00000A0000000A0200000A0400000A0600000A0800000A0A00000A0C00000A0E00000C0000000C0200000C0400000C0600000C0800000C0
310
A00000C0C00000C0E00000E0000000E0200000E0400000E0600000E0800000E0A00000E0C00000E0E00040000000400020004000400040006000400080004000A0004000C0004000E00040200000402020004020400040206000402080004020A0004020C0004020E000404000004040200040404000404060004040800040
310
40A0004040C0004040E00040600000406020004060400040606000406080004060A0004060C0004060E00040800000408020004080400040806000408080004080A0004080C0004080E00040A0000040A0200040A0400040A0600040A0800040A0A00040A0C00040A0E00040C0000040C0200040C0400040C0600040C08000
310
40C0A00040C0C00040C0E00040E0000040E0200040E0400040E0600040E0800040E0A00040E0C00040E0E00080000000800020008000400080006000800080008000A0008000C0008000E00080200000802020008020400080206000802080008020A0008020C0008020E00080400000804020008040400080406000804080
310
008040A0008040C0008040E00080600000806020008060400080606000806080008060A0008060C0008060E00080800000808020008080400080806000808080008080A0008080C0008080E00080A0000080A0200080A0400080A0600080A0800080A0A00080A0C00080A0E00080C0000080C0200080C0400080C0600080C0
310
800080C0A00080C0C00080C0E00080E0000080E0200080E0400080E0600080E0800080E0A00080E0C00080E0E000C0000000C0002000C0004000C0006000C0008000C000A000C000C000C000E000C0200000C0202000C0204000C0206000C0208000C020A000C020C000C020E000C0400000C0402000C0404000C0406000C0
310
408000C040A000C040C000C040E000C0600000C0602000C0604000C0606000C0608000C060A000C060C000C060E000C0800000C0802000C0804000C0806000C0808000C080A000C080C000C080E000C0A00000C0A02000C0A04000C0A06000C0A08000C0A0A000C0A0C000C0A0E000C0C00000C0C02000C0C04000C0C06000
310
C0C08000C0C0A000F0FBFF00A4A0A000808080000000FF0000FF000000FFFF00FF000000FF00FF00FFFF0000FFFFFF0000000000000000000000000000000000000000000000000000000000000000000000000000000000000000000000000000000000000000000000000000000000000000000000000000000000000000
310
000000000000000000000000000000000000000000000000000000000000000000000000000000000000000000000000000000000000000000000000000000000000000000000000000000000000000000000000000000000000000000000000000000000000000000000000000000000000FEFEFEFEFEFEFEFEFEFEFEFEFE
310
FEFEFEFEFEFEFEFEFEFEFEFEFEFEFEFEFE0000FE00000000000000000000000000000000000000FEFDFDFEA7A7FEFEFEFE0000FE00000000000000000000000000000000000000FEFEFEA7FEFEFEFEFEFE0000FE00000000000000000000000000000000000000000000FEA7FDA7A7FEFE0000FE0000000000000000000000
310
0000000000000000000000000000000000FD0000FE00000000000000000000000000000000000000000000000000000000FD0000FE00000000000000000000000000000000000000000000000000000000FD0000FE00000000000000000000000000000000000000000000000000000000FD0000FE00000000000000000000
310
000000000000000000000000000000000000FD0000FE00000000000000000000000000000000000000000000000000000000FD0000FE00000000000000000000000000000000000000000000000000000000FD0000FE00000000000000000000000000000000000000000000000000000000FD0000FE000000000000000000
310
00000000000000000000000000000000000000FD0000FE00000000000000000000000000000000000000000000000000000000FD0000FE00000000000000000000000000000000000000000000000000000000FD0000FE00000000000000000000000000000000000000000000000000000000FD0000FE0000000000000000
310
0000000000000000000000000000000000000000FD0000FE00000000000000000000000000000000000000000000000000000000FD0000FE00000000000000000000000000000000000000000000000000000000FD0000FEFEFEFEFEFEFEFEFEFEFEFEFEFEFEFEFEFEFEFEFEFEFEFEFEFEFEFEFEFD00000000000000000000
310
00000000000000000000000000000000000000000000000000000000000000000000000000000000000000000000000000000000000000000000000000000000000000000000000000000000000000000000000000000000000000000000000000000000000000000000000000000000000000000000000000000000000000
310
0000000000000000000000000000000000000000000000000000000000000000000000000000000000000000000000000000000000000000
102
{BLKREFS
331
D7
102
}
1001
ACAD
1000
DesignCenter Data
1002
{
1070
     1
1070
     4
1002
}
  0
BLOCK_RECORD
  5
224
102
{ACAD_XDICTIONARY
360
225
102
}
330
1
100
AcDbSymbolTableRecord
100
AcDbBlockTableRecord
  2
NOCK1
340
0
102
{BLKREFS
331
271
331
223
331
234
102
}
  0
BLOCK_RECORD
  5
279
102
{ACAD_XDICTIONARY
360
27A
102
}
330
1
100
AcDbSymbolTableRecord
100
AcDbBlockTableRecord
  2
ハンドル外観図-A
340
0
102
{BLKREFS
331
278
102
}
  0
BLOCK_RECORD
  5
189
330
1
100
AcDbSymbolTableRecord
100
AcDbBlockTableRecord
  2
*D12
340
0
  0
BLOCK_RECORD
  5
19A
330
1
100
AcDbSymbolTableRecord
100
AcDbBlockTableRecord
  2
*D13
340
0
  0
BLOCK_RECORD
  5
1A9
330
1
100
AcDbSymbolTableRecord
100
AcDbBlockTableRecord
  2
*D14
340
0
  0
BLOCK_RECORD
  5
1B8
330
1
100
AcDbSymbolTableRecord
100
AcDbBlockTableRecord
  2
*D15
340
0
  0
BLOCK_RECORD
  5
1DF
330
1
100
AcDbSymbolTableRecord
100
AcDbBlockTableRecord
  2
*D16
340
0
  0
BLOCK_RECORD
  5
1FF
330
1
100
AcDbSymbolTableRecord
100
AcDbBlockTableRecord
  2
*D17
340
0
  0
BLOCK_RECORD
  5
334
330
1
100
AcDbSymbolTableRecord
100
AcDbBlockTableRecord
  2
*D18
340
0
  0
BLOCK_RECORD
  5
341
330
1
100
AcDbSymbolTableRecord
100
AcDbBlockTableRecord
  2
*D19
340
0
  0
BLOCK_RECORD
  5
34E
330
1
100
AcDbSymbolTableRecord
100
AcDbBlockTableRecord
  2
*D20
340
0
  0
BLOCK_RECORD
  5
35B
330
1
100
AcDbSymbolTableRecord
100
AcDbBlockTableRecord
  2
*D21
340
0
  0
BLOCK_RECORD
  5
368
330
1
100
AcDbSymbolTableRecord
100
AcDbBlockTableRecord
  2
*D22
340
0
  0
BLOCK_RECORD
  5
3B5
330
1
100
AcDbSymbolTableRecord
100
AcDbBlockTableRecord
  2
*D23
340
0
  0
BLOCK_RECORD
  5
3C4
330
1
100
AcDbSymbolTableRecord
100
AcDbBlockTableRecord
  2
*D24
340
0
  0
BLOCK_RECORD
  5
3D1
330
1
100
AcDbSymbolTableRecord
100
AcDbBlockTableRecord
  2
*D25
340
0
  0
BLOCK_RECORD
  5
3DE
330
1
100
AcDbSymbolTableRecord
100
AcDbBlockTableRecord
  2
*D26
340
0
  0
BLOCK_RECORD
  5
375
330
1
100
AcDbSymbolTableRecord
100
AcDbBlockTableRecord
  2
*D27
340
0
  0
BLOCK_RECORD
  5
382
330
1
100
AcDbSymbolTableRecord
100
AcDbBlockTableRecord
  2
*D28
340
0
  0
BLOCK_RECORD
  5
38F
330
1
100
AcDbSymbolTableRecord
100
AcDbBlockTableRecord
  2
*D29
340
0
  0
BLOCK_RECORD
  5
39C
330
1
100
AcDbSymbolTableRecord
100
AcDbBlockTableRecord
  2
*D30
340
0
  0
BLOCK_RECORD
  5
3A9
330
1
100
AcDbSymbolTableRecord
100
AcDbBlockTableRecord
  2
*D31
340
0
  0
BLOCK_RECORD
  5
3EB
330
1
100
AcDbSymbolTableRecord
100
AcDbBlockTableRecord
  2
*D32
340
0
  0
BLOCK_RECORD
  5
48F
330
1
100
AcDbSymbolTableRecord
100
AcDbBlockTableRecord
  2
_ACMFILLED
340
0
  0
BLOCK_RECORD
  5
469
330
1
100
AcDbSymbolTableRecord
100
AcDbBlockTableRecord
  2
_ACMFILLEDHALF
340
0
  0
BLOCK_RECORD
  5
45B
330
1
100
AcDbSymbolTableRecord
100
AcDbBlockTableRecord
  2
_ACMOPEN15
340
0
  0
BLOCK_RECORD
  5
473
330
1
100
AcDbSymbolTableRecord
100
AcDbBlockTableRecord
  2
_ACMFILLED15
340
0
  0
ENDTAB
  0
ENDSEC
  0
SECTION
  2
BLOCKS
  0
BLOCK
  5
5
330
2
100
AcDbEntity
  8
0
 62
     0
100
AcDbBlockBegin
  2
*Model_Space
 70
     0
 10
0.0
 20
0.0
 30
0.0
  3
*Model_Space
  1

  0
ENDBLK
  5
11
330
2
100
AcDbEntity
  8
0
 62
     0
100
AcDbBlockEnd
  0
BLOCK
  5
18
330
15
100
AcDbEntity
 67
     1
  8
0
 62
     0
100
AcDbBlockBegin
  2
*Paper_Space
 70
     0
 10
0.0
 20
0.0
 30
0.0
  3
*Paper_Space
  1

  0
ENDBLK
  5
19
330
15
100
AcDbEntity
 67
     1
  8
0
 62
     0
100
AcDbBlockEnd
  0
BLOCK
  5
44
330
43
100
AcDbEntity
  8
0
 62
     0
100
AcDbBlockBegin
  2
GENAXEH
 70
     0
 10
0.0
 20
0.0
 30
0.0
  3
GENAXEH
  1

  0
LINE
  5
45
330
43
100
AcDbEntity
  8
0
100
AcDbLine
 10
-1.0
 20
0.0
 30
0.0
 11
1.0
 21
0.0
 31
0.0
  0
ENDBLK
  5
46
330
43
100
AcDbEntity
  8
0
 62
     0
100
AcDbBlockEnd
  0
BLOCK
  5
3B
330
3A
100
AcDbEntity
  8
0
 62
     0
100
AcDbBlockBegin
  2
_Open30
 70
     0
 10
0.0
 20
0.0
 30
0.0
  3
_Open30
  1

  0
LINE
  5
3C
330
3A
100
AcDbEntity
  8
0
  6
ByBlock
 62
     7
370
    -2
100
AcDbLine
 10
-1.0
 20
0.2679491900000244
 30
0.0
 11
0.0
 21
0.0
 31
0.0
  0
LINE
  5
3D
330
3A
100
AcDbEntity
  8
0
  6
ByBlock
 62
     7
370
    -2
100
AcDbLine
 10
0.0
 20
0.0
 30
0.0
 11
-1.0
 21
-0.2679491900000244
 31
0.0
  0
LINE
  5
3E
330
3A
100
AcDbEntity
  8
0
  6
ByBlock
 62
     0
370
    -2
100
AcDbLine
 10
0.0
 20
0.0
 30
0.0
 11
-1.0
 21
0.0
 31
0.0
  0
ENDBLK
  5
3F
330
3A
100
AcDbEntity
  8
0
 62
     0
100
AcDbBlockEnd
  0
BLOCK
  5
69
330
66
100
AcDbEntity
  8
0
100
AcDbBlockBegin
  2
表題覧_ver.1
 70
     2
 10
0.0
 20
0.0
 30
0.0
  3
表題覧_ver.1
  1

  0
ATTDEF
  5
6A
330
66
100
AcDbEntity
  8
0
100
AcDbText
 10
-73.10399192270904
 20
27.54999999999782
 30
0.0
 40
4.0
  1
AAAA
 41
1.646590909090915
  7
K1
 72
     5
 11
-48.95399192270895
 21
27.54999999999782
 31
0.0
100
AcDbAttributeDefinition
  3
JOB_No?
  2
JOB_NO
 70
     4
  0
ATTDEF
  5
6B
330
66
100
AcDbEntity
  8
A4WAKU
100
AcDbText
 10
-56.74219840503115
 20
17.54999999999779
 30
0.0
 40
6.0
  1
DDDD
 41
0.8
  7
K1
 72
     4
 11
-47.94219840503115
 21
20.54999999999779
 31
0.0
100
AcDbAttributeDefinition
  3
2.TITLE?
  2
TITLE
 70
     4
  0
ATTDEF
  5
6F
330
66
100
AcDbEntity
  8
A4WAKU
100
AcDbText
 10
-68.07175800089066
 20
3.499999999997726
 30
0.0
 40
6.0
  1
CCCC
 41
2.806363636363636
  7
K1
 72
     5
 11
-6.331758000890658
 21
3.499999999997726
 31
0.0
100
AcDbAttributeDefinition
  3
3.DRAWING_No?
  2
DRAWING_NO.
 70
     4
  0
ATTDEF
  5
70
330
66
100
AcDbEntity
  8
A4WAKU
100
AcDbText
 10
-110.9421984050312
 20
17.04999999999779
 30
0.0
 40
3.0
  1
1/1
 41
1.981874999999988
  7
K1
 72
     5
 11
-100.3721984050313
 21
17.04999999999779
 31
0.0
100
AcDbAttributeDefinition
  3
4.SCALE?
  2
SCALE
 70
     4
  0
ATTDEF
  5
71
330
66
100
AcDbEntity
  8
A4WAKU
100
AcDbText
 10
-143.1840859713084
 20
18.65999999999781
 30
0.0
 40
3.5
  1
SS400
  7
K1
 72
     2
 11
-127.2396415268639
 21
18.65999999999781
 31
0.0
100
AcDbAttributeDefinition
  3
7.MATERIAL?
  2
MATERIAL
 70
     4
  0
ATTDEF
  5
72
330
66
100
AcDbEntity
  8
0
100
AcDbText
 10
-35.2555555555569
 20
27.49999999999787
 30
0.0
 40
4.0
  1
1
 41
0.8
  7
K1
 72
     4
 11
-34.90000000000134
 21
29.49999999999787
 31
0.0
100
AcDbAttributeDefinition
  3
6.KAZU?
  2
AMT
 70
     4
  0
ATTDEF
  5
73
330
66
100
AcDbEntity
  8
A4WAKU
100
AcDbText
 10
-134.7063081935306
 20
9.829999999997824
 30
0.0
 40
3.5
  1
黒染
  7
K1
 72
     2
 11
-127.2396415268639
 21
9.829999999997824
 31
0.0
100
AcDbAttributeDefinition
  3
7.REMARK?
  2
REMARK
 70
     4
  0
ATTDEF
  5
74
330
66
100
AcDbEntity
  8
0
100
AcDbText
 10
-26.20399192270895
 20
27.5499999999978
 30
0.0
 40
4.0
  1
BBBB
 41
1.646590909090915
  7
K1
 72
     5
 11
-2.05399192270886
 21
27.5499999999978
 31
0.0
100
AcDbAttributeDefinition
  3
DATE?
  2
DATE
 70
     4
  0
ATTDEF
  5
75
330
66
100
AcDbEntity
  8
A4WAKU
100
AcDbText
 10
-140.7922955427447
 20
0.9999999999978115
 30
0.0
 40
3.5
  1
0.00
  7
K1
 72
     2
 11
-130.2922955427447
 21
0.9999999999978115
 31
0.0
100
AcDbAttributeDefinition
  3
7.WEIGHT?
  2
WEIGHT
 70
     4
  0
ENDBLK
  5
76
330
66
100
AcDbEntity
  8
0
100
AcDbBlockEnd
  0
BLOCK
  5
84
330
82
100
AcDbEntity
  8
0
 62
     0
100
AcDbBlockBegin
  2
流用枠1-A
 70
     2
 10
0.0
 20
0.0
 30
0.0
  3
流用枠1-A
  1

  0
LWPOLYLINE
  5
85
330
82
100
AcDbEntity
  8
0
 62
     4
100
AcDbPolyline
 90
        3
 70
     0
 43
0.0
 10
0.0
 20
0.0
 10
0.0
 20
8.999999999999971
 10
74.89999999999963
 20
8.999999999999971
  0
TEXT
  5
86
330
82
100
AcDbEntity
  8
0
 62
    11
100
AcDbText
 10
0.6999999999998181
 20
6.349999999999937
 30
0.0
 40
2.0
  1
ＪＯＢ　ＮＯ．工事記号
 41
0.5412371134020617
  7
K1
 72
     5
 11
14.69999999999982
 21
6.349999999999937
 31
0.0
100
AcDbText
  0
ATTDEF
  5
87
330
82
100
AcDbEntity
  8
0
100
AcDbText
 10
1.469999999999799
 20
1.049999999999926
 30
0.0
 40
4.0
  1

 41
1.646590909090915
  7
K1
 72
     5
 11
25.61999999999989
 21
1.049999999999926
 31
0.0
100
AcDbAttributeDefinition
  3
JOB_No?
  2
AAAA
 70
     4
  0
LINE
  5
88
330
82
100
AcDbEntity
  8
0
 62
     6
100
AcDbLine
 10
46.90000000000009
 20
-0.0000000000000284
 30
0.0
 11
46.90000000000009
 21
8.999999999999971
 31
0.0
  0
ATTDEF
  5
89
330
82
100
AcDbEntity
  8
0
100
AcDbText
 10
40.0
 20
2.999999999999971
 30
0.0
 40
4.0
  1

 41
0.8
  7
K1
 72
     4
 11
40.0
 21
2.999999999999971
 31
0.0
100
AcDbAttributeDefinition
  3
6.KAZU?
  2
1
 70
     4
  0
TEXT
  5
8A
330
82
100
AcDbEntity
  8
A3WAKU
 62
    11
100
AcDbText
 10
28.69999999999982
 20
6.349999999999937
 30
0.0
 40
2.0
  1
ＡＭＴ.所要数（個）
 41
0.6702127659574466
  7
K1
 72
     5
 11
42.69999999999981
 21
6.349999999999937
 31
0.0
100
AcDbText
  0
LINE
  5
8E
330
82
100
AcDbEntity
  8
0
 62
     6
100
AcDbLine
 10
28.0
 20
-0.0000000000000284
 30
0.0
 11
28.0
 21
8.999999999999971
 31
0.0
  0
TEXT
  5
8F
330
82
100
AcDbEntity
  8
A3WAKU
 62
    11
100
AcDbText
 10
47.5999999999999
 20
6.349999999999937
 30
0.0
 40
2.0
  1
DATE.
 41
0.7297297297297299
  7
K1
 72
     5
 11
53.59999999999991
 21
6.349999999999937
 31
0.0
100
AcDbText
  0
ATTDEF
  5
90
330
82
100
AcDbEntity
  8
0
100
AcDbText
 10
48.36999999999989
 20
1.049999999999897
 30
0.0
 40
4.0
  1

 41
1.646590909090915
  7
K1
 72
     5
 11
72.51999999999998
 21
1.049999999999897
 31
0.0
100
AcDbAttributeDefinition
  3
DATE?
  2
BBBB
 70
     4
  0
ENDBLK
  5
91
330
82
100
AcDbEntity
  8
0
 62
     0
100
AcDbBlockEnd
  0
BLOCK
  5
A4
330
A1
100
AcDbEntity
  8
0
 62
     0
100
AcDbBlockBegin
  2
配布先表
 70
     0
 10
0.0
 20
0.0
 30
0.0
  3
配布先表
  1

  0
LWPOLYLINE
  5
A5
330
A1
100
AcDbEntity
  8
0
 62
     6
100
AcDbPolyline
 90
        2
 70
     0
 43
0.0
 10
0.0
 20
21.24999999999997
 10
-12.0
 20
21.24999999999997
  0
LWPOLYLINE
  5
A6
330
A1
100
AcDbEntity
  8
0
 62
     6
100
AcDbPolyline
 90
        2
 70
     0
 43
0.0
 10
0.0
 20
15.99999999999997
 10
-12.0
 20
15.99999999999997
  0
LWPOLYLINE
  5
A7
330
A1
100
AcDbEntity
  8
0
 62
     6
100
AcDbPolyline
 90
        2
 70
     0
 43
0.0
 10
0.0
 20
10.99999999999994
 10
-12.0
 20
10.99999999999994
  0
LWPOLYLINE
  5
A8
330
A1
100
AcDbEntity
  8
0
 62
     6
100
AcDbPolyline
 90
        2
 70
     0
 43
0.0
 10
0.0
 20
5.499999999999971
 10
-12.0
 20
5.499999999999971
  0
LINE
  5
A9
330
A1
100
AcDbEntity
  8
0
 62
     6
100
AcDbLine
 10
-5.0
 20
21.24999999999997
 30
0.0
 11
-5.0
 21
-0.0000000000000142
 31
0.0
  0
TEXT
  5
AA
330
A1
100
AcDbEntity
  8
A3WAKU
 62
    11
100
AcDbText
 10
-11.0
 20
22.37499999999997
 30
0.0
 40
3.0
  1
配布先
  7
K1
 72
     4
 11
-6.0
 21
23.87499999999997
 31
0.0
100
AcDbText
  0
TEXT
  5
AB
330
A1
100
AcDbEntity
  8
A3WAKU
 62
    11
100
AcDbText
 10
-11.16666666666666
 20
17.37499999999997
 30
0.0
 40
2.5
  1
資材
  7
K1
 72
     4
 11
-8.5
 21
18.62499999999997
 31
0.0
100
AcDbText
  0
TEXT
  5
AC
330
A1
100
AcDbEntity
  8
A3WAKU
 62
    11
100
AcDbText
 10
-11.16666666666667
 20
12.24999999999994
 30
0.0
 40
2.5
  1
製造
  7
K1
 72
     4
 11
-8.5
 21
13.49999999999994
 31
0.0
100
AcDbText
  0
CIRCLE
  5
AD
330
A1
100
AcDbEntity
  8
A3WAKU
 62
    11
100
AcDbCircle
 10
-2.5
 20
18.62499999999997
 30
0.0
 40
1.25
  0
CIRCLE
  5
AE
330
A1
100
AcDbEntity
  8
A3WAKU
 62
    11
100
AcDbCircle
 10
-2.5
 20
13.49999999999994
 30
0.0
 40
1.25
  0
LINE
  5
AF
330
A1
100
AcDbEntity
  8
0
 62
     4
100
AcDbLine
 10
0.0
 20
26.5
 30
0.0
 11
-11.99999999999977
 21
26.5
 31
0.0
  0
LINE
  5
B0
330
A1
100
AcDbEntity
  8
0
 62
     4
100
AcDbLine
 10
-11.99999999999977
 20
-0.0000000000000142
 30
0.0
 11
-11.99999999999977
 21
26.49999999999999
 31
0.0
  0
ENDBLK
  5
B1
330
A1
100
AcDbEntity
  8
0
 62
     0
100
AcDbBlockEnd
  0
BLOCK
  5
B6
330
B3
100
AcDbEntity
  8
0
 62
     0
100
AcDbBlockBegin
  2
普通公差&規格表
 70
     0
 10
0.0
 20
0.0
 30
0.0
  3
普通公差&規格表
  1

  0
LINE
  5
B7
330
B3
100
AcDbEntity
  8
0
 62
     4
100
AcDbLine
 10
0.0
 20
26.50000000000003
 30
0.0
 11
-35.0
 21
26.50000000000003
 31
0.0
  0
LINE
  5
B8
330
B3
100
AcDbEntity
  8
0
 62
     4
100
AcDbLine
 10
-46.99999999999977
 20
26.50000000000003
 30
0.0
 11
-72.99999999999977
 21
26.50000000000003
 31
0.0
  0
LINE
  5
B9
330
B3
100
AcDbEntity
  8
0
 62
     4
100
AcDbLine
 10
-35.0
 20
0.0000000000000284
 30
0.0
 11
-35.0
 21
26.50000000000003
 31
0.0
  0
LINE
  5
BA
330
B3
100
AcDbEntity
  8
K-1
  6
ByBlock
 62
     6
100
AcDbLine
 10
-46.99999999999977
 20
21.24999999999992
 30
0.0
 11
-67.99999999999977
 21
21.24999999999992
 31
0.0
  0
LINE
  5
BB
330
B3
100
AcDbEntity
  8
K-1
  6
ByBlock
 62
     6
100
AcDbLine
 10
-46.99999999999977
 20
15.99999999999991
 30
0.0
 11
-67.99999999999977
 21
15.99999999999991
 31
0.0
  0
LINE
  5
BC
330
B3
100
AcDbEntity
  8
K-1
  6
ByBlock
 62
     6
100
AcDbLine
 10
-46.99999999999977
 20
11.10000000000005
 30
0.0
 11
-67.99999999999977
 21
11.10000000000005
 31
0.0
  0
LINE
  5
BD
330
B3
100
AcDbEntity
  8
K-1
  6
ByBlock
 62
     6
100
AcDbLine
 10
-46.99999999999977
 20
5.500000000000028
 30
0.0
 11
-67.99999999999977
 21
5.500000000000028
 31
0.0
  0
LINE
  5
BE
330
B3
100
AcDbEntity
  8
K-1
  6
ByBlock
 62
     6
100
AcDbLine
 10
-67.99999999999977
 20
0.0000000000000284
 30
0.0
 11
-67.99999999999977
 21
26.50000000000003
 31
0.0
  0
LINE
  5
BF
330
B3
100
AcDbEntity
  8
K-1
  6
ByBlock
 62
     6
100
AcDbLine
 10
-56.99999999999977
 20
26.50000000000003
 30
0.0
 11
-56.99999999999977
 21
0.0000000000000284
 31
0.0
  0
TEXT
  5
C0
330
B3
100
AcDbEntity
  8
K-1
  6
ByBlock
 62
     6
100
AcDbText
 10
-68.99999999999977
 20
1.560791195882899
 30
0.0
 40
3.0
  1
普通公差（単位mm）
 50
90.0
 41
0.7
  7
K1
100
AcDbText
  0
TEXT
  5
C1
330
B3
100
AcDbEntity
  8
K-1
  6
ByBlock
 62
     6
100
AcDbText
 10
-65.49999999999977
 20
21.84999999999994
 30
0.0
 40
1.8
  1
6 以下
 41
0.8
  7
K1
100
AcDbText
  0
TEXT
  5
C2
330
B3
100
AcDbEntity
  8
K-1
  6
ByBlock
 62
     6
100
AcDbText
 10
-65.99999999999977
 20
18.69999999999996
 30
0.0
 40
1.8
  1
6 を超え
 41
0.8
  7
K1
100
AcDbText
  0
TEXT
  5
C3
330
B3
100
AcDbEntity
  8
K-1
  6
ByBlock
 62
     6
100
AcDbText
 10
-65.99999999999977
 20
16.29999999999998
 30
0.0
 40
1.8
  1
30 以下
 41
0.8
  7
K1
100
AcDbText
  0
TEXT
  5
C4
330
B3
100
AcDbEntity
  8
K-1
  6
ByBlock
 62
     6
100
AcDbText
 10
-66.49999999999977
 20
13.80000000000009
 30
0.0
 40
1.8
  1
30 を超え
 41
0.8
  7
K1
100
AcDbText
  0
TEXT
  5
C5
330
B3
100
AcDbEntity
  8
K-1
  6
ByBlock
 62
     6
100
AcDbText
 10
-66.49999999999977
 20
11.40000000000012
 30
0.0
 40
1.8
  1
120 以下
 41
0.8
  7
K1
100
AcDbText
  0
TEXT
  5
C6
330
B3
100
AcDbEntity
  8
K-1
  6
ByBlock
 62
     6
100
AcDbText
 10
-66.49999999999977
 20
8.500000000000028
 30
0.0
 40
1.8
  1
120 を超え
 41
0.7
  7
K1
100
AcDbText
  0
TEXT
  5
C7
330
B3
100
AcDbEntity
  8
K-1
  6
ByBlock
 62
     6
100
AcDbText
 10
-66.49999999999977
 20
6.100000000000051
 30
0.0
 40
1.8
  1
400 以下
 41
0.7
  7
K1
100
AcDbText
  0
TEXT
  5
C8
330
B3
100
AcDbEntity
  8
K-1
  6
ByBlock
 62
     6
100
AcDbText
 10
-66.49999999999977
 20
2.900000000000005
 30
0.0
 40
1.8
  1
400 を超え
 41
0.7
  7
K1
100
AcDbText
  0
TEXT
  5
C9
330
B3
100
AcDbEntity
  8
K-1
  6
ByBlock
 62
     6
100
AcDbText
 10
-66.49999999999977
 20
0.5000000000000285
 30
0.0
 40
1.8
  1
1000 以下
 41
0.7
  7
K1
100
AcDbText
  0
TEXT
  5
CA
330
B3
100
AcDbEntity
  8
K-1
  6
ByBlock
 62
     6
100
AcDbText
 10
-55.99999999999977
 20
22.24999999999992
 30
0.0
 40
3.0
  1
\U+00B10.1
 41
0.8
  7
K1
100
AcDbText
  0
TEXT
  5
CB
330
B3
100
AcDbEntity
  8
K-1
  6
ByBlock
 62
     6
100
AcDbText
 10
-55.99999999999977
 20
16.99999999999991
 30
0.0
 40
3.0
  1
\U+00B10.2
 41
0.8
  7
K1
100
AcDbText
  0
TEXT
  5
CC
330
B3
100
AcDbEntity
  8
K-1
  6
ByBlock
 62
     6
100
AcDbText
 10
-55.99999999999977
 20
12.10000000000005
 30
0.0
 40
3.0
  1
\U+00B10.3
 41
0.8
  7
K1
100
AcDbText
  0
TEXT
  5
CD
330
B3
100
AcDbEntity
  8
K-1
  6
ByBlock
 62
     6
100
AcDbText
 10
-55.99999999999977
 20
6.500000000000028
 30
0.0
 40
3.0
  1
\U+00B10.5
 41
0.8
  7
K1
100
AcDbText
  0
TEXT
  5
CE
330
B3
100
AcDbEntity
  8
K-1
  6
ByBlock
 62
     6
100
AcDbText
 10
-55.99999999999977
 20
0.9000000000000056
 30
0.0
 40
3.0
  1
\U+00B10.8
 41
0.8
  7
K1
100
AcDbText
  0
TEXT
  5
CF
330
B3
100
AcDbEntity
  8
A3WAKU
  6
ByBlock
 62
    11
100
AcDbText
 10
-34.15579945824334
 20
5.918102299532819
 30
0.0
 40
2.0
  1
WEIGHT,　質量
 41
0.6
  7
K1
100
AcDbText
  0
TEXT
  5
D0
330
B3
100
AcDbEntity
  8
A3WAKU
  6
ByBlock
 62
    11
100
AcDbText
 10
-33.83638496479103
 20
14.877584418514
 30
0.0
 40
2.0
  1
REMARK,　摘要
 41
0.6
  7
K1
100
AcDbText
  0
TEXT
  5
D1
330
B3
100
AcDbEntity
  8
A3WAKU
  6
ByBlock
 62
    11
100
AcDbText
 10
-34.09838126990531
 20
23.65300136638916
 30
0.0
 40
2.0
  1
MATERIAL,　材料(規格)
 41
0.6
  7
K1
100
AcDbText
  0
LINE
  5
D2
330
B3
100
AcDbEntity
  8
0
  6
ByBlock
 62
     4
100
AcDbLine
 10
-35.0
 20
8.830000000000026
 30
0.0
 11
0.0
 21
8.829999999999998
 31
0.0
  0
LINE
  5
D3
330
B3
100
AcDbEntity
  8
0
  6
ByBlock
 62
     4
100
AcDbLine
 10
-35.0
 20
17.66000000000002
 30
0.0
 11
0.0
 21
17.66
 31
0.0
  0
LINE
  5
D4
330
B3
100
AcDbEntity
  8
0
 62
     4
100
AcDbLine
 10
-72.99999999999977
 20
0.0000000000000284
 30
0.0
 11
-72.99999999999977
 21
26.50000000000003
 31
0.0
  0
TEXT
  5
D5
330
B3
100
AcDbEntity
  8
K-1
  6
ByBlock
 62
     0
100
AcDbText
 10
-4.006592967263486
 20
1.295768965381455
 30
0.0
 40
2.0
  1
kg
 41
0.8
  7
K1
100
AcDbText
  0
ENDBLK
  5
D6
330
B3
100
AcDbEntity
  8
0
 62
     0
100
AcDbBlockEnd
  0
BLOCK
  5
2E6
330
2E5
100
AcDbEntity
  8
K-1
100
AcDbBlockBegin
  2
B03005A
 70
     2
 10
0.0
 20
0.0
 30
0.0
  3
B03005A
  1

  0
ATTDEF
  5
2E7
330
2E5
100
AcDbEntity
  8
KIKI
  6
ByBlock
 62
     0
100
AcDbText
 10
-2.0
 20
1.299999999999954
 30
0.0
 40
0.1
  1
.
 41
0.8
  7
K1
100
AcDbAttributeDefinition
  3
M3X5
  2
M3
 70
    13
  0
POLYLINE
  5
2E8
330
2E5
100
AcDbEntity
  8
KIKI
  6
ByBlock
 62
     0
100
AcDb2dPolyline
 66
     1
 10
0.0
 20
0.0
 30
0.0
  0
VERTEX
  5
2E9
330
2E8
100
AcDbEntity
  8
KIKI
  6
ByBlock
 62
     0
100
AcDbVertex
100
AcDb2dVertex
 10
2.75
 20
0.0
 30
0.0
  0
VERTEX
  5
2EA
330
2E8
100
AcDbEntity
  8
KIKI
  6
ByBlock
 62
     0
100
AcDbVertex
100
AcDb2dVertex
 10
2.75
 20
3.0
 30
0.0
  0
VERTEX
  5
2EB
330
2E8
100
AcDbEntity
  8
KIKI
  6
ByBlock
 62
     0
100
AcDbVertex
100
AcDb2dVertex
 10
-2.75
 20
3.0
 30
0.0
  0
VERTEX
  5
2EC
330
2E8
100
AcDbEntity
  8
KIKI
  6
ByBlock
 62
     0
100
AcDbVertex
100
AcDb2dVertex
 10
-2.75
 20
0.0
 30
0.0
  0
SEQEND
  5
2ED
330
2E8
100
AcDbEntity
  8
KIKI
  6
ByBlock
 62
     0
  0
ENDBLK
  5
2EE
330
2E5
100
AcDbEntity
  8
K-1
100
AcDbBlockEnd
  0
BLOCK
  5
2E2
330
2E1
100
AcDbEntity
  8
KIKI
100
AcDbBlockBegin
  2
B03008A
 70
     2
 10
0.0
 20
0.0
 30
0.0
  3
B03008A
  1

  0
ATTDEF
  5
2E3
330
2E1
100
AcDbEntity
  8
KIKI
  6
ByBlock
 62
     0
100
AcDbText
 10
-0.8975188311260353
 20
1.299999999999954
 30
0.0
 40
0.1
  1
.
 41
0.8
  7
K1
100
AcDbAttributeDefinition
  3
M3X8
  2
M3
 70
    13
  0
INSERT
  5
2E4
330
2E1
100
AcDbEntity
  8
KIKI
  6
ByBlock
 62
     0
100
AcDbBlockReference
 66
     1
  2
B03005A
 10
0.0
 20
0.0
 30
0.0
  0
ATTRIB
  5
2EF
330
2E4
100
AcDbEntity
  8
KIKI
  6
ByBlock
 62
     0
100
AcDbText
 10
-2.0
 20
1.299999999999954
 30
0.0
 40
0.1
  1
.
 41
0.8000000000000001
  7
K1
100
AcDbAttribute
  2
M3
 70
    13
  0
SEQEND
  5
2F0
330
2E4
100
AcDbEntity
  8
KIKI
  6
ByBlock
 62
     0
  0
ENDBLK
  5
2F1
330
2E1
100
AcDbEntity
  8
KIKI
100
AcDbBlockEnd
  0
BLOCK
  5
9F
330
9C
100
AcDbEntity
  8
0
100
AcDbBlockBegin
  2
WAKUA3_ver.1
 70
     0
 10
0.0
 20
0.0
 30
0.0
  3
WAKUA3_ver.1
  1

  0
INSERT
  5
A0
330
9C
100
AcDbEntity
  8
0
  6
ByBlock
 62
     0
100
AcDbBlockReference
  2
配布先表
 10
247.9999999999982
 20
6.500000000001818
 30
0.0
  0
INSERT
  5
B2
330
9C
100
AcDbEntity
  8
0
  6
ByBlock
 62
     0
100
AcDbBlockReference
  2
普通公差&規格表
 10
282.9999999999982
 20
6.500000000001762
 30
0.0
  0
INSERT
  5
D7
330
9C
100
AcDbEntity
  8
K-1
  6
ByBlock
 62
     0
100
AcDbBlockReference
  2
WAKUA3
 10
0.0
 20
0.0
 30
0.0
  0
ENDBLK
  5
11F
330
9C
100
AcDbEntity
  8
0
100
AcDbBlockEnd
  0
BLOCK
  5
D9
330
D8
100
AcDbEntity
  8
0
 62
     0
100
AcDbBlockBegin
  2
WAKUA3
 70
     0
 10
0.0
 20
0.0
 30
0.0
  3
WAKUA3
  1

  0
POLYLINE
  5
DA
330
D8
100
AcDbEntity
  8
0
 62
     4
100
AcDb2dPolyline
 66
     1
 10
0.0
 20
0.0
 30
0.0
 70
     1
  0
VERTEX
  5
DB
330
DA
100
AcDbEntity
  8
0
 62
     4
100
AcDbVertex
100
AcDb2dVertex
 10
0.0
 20
285.0000000000004
 30
0.0
  0
VERTEX
  5
DC
330
DA
100
AcDbEntity
  8
0
 62
     4
100
AcDbVertex
100
AcDb2dVertex
 10
0.0
 20
6.50000000000216
 30
0.0
  0
VERTEX
  5
DD
330
DA
100
AcDbEntity
  8
0
 62
     4
100
AcDbVertex
100
AcDb2dVertex
 10
408.0
 20
6.50000000000216
 30
0.0
  0
VERTEX
  5
DE
330
DA
100
AcDbEntity
  8
0
 62
     4
100
AcDbVertex
100
AcDb2dVertex
 10
408.0
 20
285.0000000000004
 30
0.0
  0
SEQEND
  5
DF
330
DA
100
AcDbEntity
  8
0
 62
     4
  0
LWPOLYLINE
  5
E0
330
D8
100
AcDbEntity
  8
0
 62
     4
100
AcDbPolyline
 90
        3
 70
     0
 43
0.0
 10
333.0999999999985
 20
33.00000000000222
 10
333.0999999999985
 20
42.00000000000218
 10
407.9999999999982
 20
42.00000000000218
  0
TEXT
  5
E1
330
D8
100
AcDbEntity
  8
A3WAKU
 62
    11
100
AcDbText
 10
333.7999999999984
 20
39.35000000000215
 30
0.0
 40
2.0
  1
ＪＯＢ　ＮＯ．工事記号
 41
0.5412371134020617
  7
K1
 72
     5
 11
347.7999999999984
 21
39.35000000000215
 31
0.0
100
AcDbText
  0
LINE
  5
E2
330
D8
100
AcDbEntity
  8
0
 62
     6
100
AcDbLine
 10
379.9999999999986
 20
33.00000000000222
 30
0.0
 11
379.9999999999986
 21
42.00000000000222
 31
0.0
  0
TEXT
  5
E3
330
D8
100
AcDbEntity
  8
A3WAKU
 62
    11
100
AcDbText
 10
361.7999999999984
 20
39.34999999999997
 30
0.0
 40
2.0
  1
ＡＭＴ.所要数（個）
 41
0.670212765957447
  7
K1
 72
     5
 11
375.7999999999984
 21
39.34999999999997
 31
0.0
100
AcDbText
  0
LINE
  5
E4
330
D8
100
AcDbEntity
  8
0
 62
     6
100
AcDbLine
 10
361.0999999999985
 20
33.0
 30
0.0
 11
361.0999999999985
 21
42.0
 31
0.0
  0
TEXT
  5
E5
330
D8
100
AcDbEntity
  8
A3WAKU
 62
    11
100
AcDbText
 10
380.6999999999984
 20
39.35000000000218
 30
0.0
 40
2.0
  1
DATE.
 41
0.7297297297297299
  7
K1
 72
     5
 11
386.6999999999984
 21
39.35000000000218
 31
0.0
100
AcDbText
  0
LINE
  5
E6
330
D8
100
AcDbEntity
  8
0
 62
     4
100
AcDbLine
 10
282.9999999999982
 20
22.50000000000216
 30
0.0
 11
407.9999999999982
 21
22.50000000000216
 31
0.0
  0
LINE
  5
E7
330
D8
100
AcDbEntity
  8
0
 62
     4
100
AcDbLine
 10
407.9999999999982
 20
33.00000000000222
 30
0.0
 11
282.9999999999982
 21
33.00000000000222
 31
0.0
  0
TEXT
  5
E8
330
D8
100
AcDbEntity
  8
A3WAKU
 62
    11
100
AcDbText
 10
334.3830353660719
 20
19.80000000000217
 30
0.0
 40
2.0
  1
ＤＲＡＷＩＮＧ　ＮＯ．図番
 41
0.6847826086956524
  7
K1
 72
     5
 11
355.3830353660719
 21
19.80000000000217
 31
0.0
100
AcDbText
  0
TEXT
  5
E9
330
D8
100
AcDbEntity
  8
A3WAKU
 62
    11
100
AcDbText
 10
311.6999999999984
 20
30.20000000000226
 30
0.0
 40
2.099999999999999
  1
ＴＩＴＬＥ．　図名
 41
0.6369426751592361
  7
K1
 72
     5
 11
325.6999999999985
 21
30.20000000000226
 31
0.0
100
AcDbText
  0
TEXT
  5
EA
330
D8
100
AcDbEntity
  8
A3WAKU
 62
    11
100
AcDbText
 10
283.9380182786479
 20
29.20851709987778
 30
0.0
 40
2.0
  1
３ＲＤ　ＡＮＧＬＥ　ＰＲＯＪＥＣＴ　第３角法
 41
0.4864278719904451
  7
K1
 72
     5
 11
309.3619817213485
 21
29.20851709987778
 31
0.0
100
AcDbText
  0
TEXT
  5
EB
330
D8
100
AcDbEntity
  8
A3WAKU
 62
    11
100
AcDbText
 10
283.9380182786479
 20
23.95851709987772
 30
0.0
 40
2.0
  1
ＳＣＡＬＥ
 41
0.7818055772304641
  7
K1
 72
     5
 11
292.5899999999984
 21
23.95851709987772
 31
0.0
100
AcDbText
  0
TEXT
  5
EC
330
D8
100
AcDbEntity
  8
A3WAKU
 62
    11
100
AcDbText
 10
316.7499999999982
 20
20.55000000000217
 30
0.0
 40
1.5
  1
ＡＰＰＲ\U+2019Ｄ．ＢＹ
 41
0.601910828025466
  7
K1
 72
     5
 11
326.199999999998
 21
20.55000000000217
 31
0.0
100
AcDbText
  0
TEXT
  5
ED
330
D8
100
AcDbEntity
  8
A3WAKU
 62
    11
100
AcDbText
 10
283.3499999999981
 20
20.55000000000214
 30
0.0
 40
1.5
  1
ＤＥＳ．ＢＹ
 41
0.7815533980582479
  7
K1
 72
     5
 11
291.3999999999981
 21
20.55000000000214
 31
0.0
100
AcDbText
  0
TEXT
  5
EE
330
D8
100
AcDbEntity
  8
A3WAKU
 62
    11
100
AcDbText
 10
300.0499999999981
 20
20.55000000000217
 30
0.0
 40
1.5
  1
ＣＨＫ．ＢＹ
 41
0.7815533980582483
  7
K1
 72
     5
 11
308.0999999999981
 21
20.55000000000217
 31
0.0
100
AcDbText
  0
LINE
  5
EF
330
D8
100
AcDbEntity
  8
0
 62
     4
100
AcDbLine
 10
333.0999999999985
 20
22.50000000000216
 30
0.0
 11
333.0999999999985
 21
6.500000000002174
 31
0.0
  0
LINE
  5
F0
330
D8
100
AcDbEntity
  8
0
 62
     4
100
AcDbLine
 10
310.9999999999982
 20
22.50000000000216
 30
0.0
 11
310.9999999999982
 21
33.00000000000222
 31
0.0
  0
LINE
  5
F1
330
D8
100
AcDbEntity
  8
0
 62
     4
100
AcDbLine
 10
310.9999999999982
 20
27.75000000000222
 30
0.0
 11
282.9999999999982
 21
27.75000000000222
 31
0.0
  0
LINE
  5
F2
330
D8
100
AcDbEntity
  8
0
 62
     4
100
AcDbLine
 10
282.9999999999982
 20
6.500000000002188
 30
0.0
 11
282.9999999999982
 21
33.00000000000219
 31
0.0
  0
LINE
  5
F3
330
D8
100
AcDbEntity
  8
K-1
  6
ByBlock
 62
     6
100
AcDbLine
 10
316.3999999999983
 20
6.500000000002188
 30
0.0
 11
316.3999999999983
 21
22.50000000000216
 31
0.0
  0
LINE
  5
F4
330
D8
100
AcDbEntity
  8
K-1
  6
ByBlock
 62
     6
100
AcDbLine
 10
299.6999999999982
 20
6.500000000002188
 30
0.0
 11
299.6999999999982
 21
22.50000000000216
 31
0.0
  0
LINE
  5
F5
330
D8
100
AcDbEntity
  8
0
 62
     6
100
AcDbLine
 10
407.9999999999982
 20
255.0000000000022
 30
0.0
 11
406.9999999999981
 21
255.0000000000022
 31
0.0
  0
LINE
  5
F6
330
D8
100
AcDbEntity
  8
0
 62
     6
100
AcDbLine
 10
407.9999999999982
 20
249.0000000000022
 30
0.0
 11
406.9999999999981
 21
249.0000000000022
 31
0.0
  0
LINE
  5
F7
330
D8
100
AcDbEntity
  8
0
 62
     6
100
AcDbLine
 10
407.9999999999982
 20
243.0000000000022
 30
0.0
 11
406.9999999999981
 21
243.0000000000022
 31
0.0
  0
LINE
  5
F8
330
D8
100
AcDbEntity
  8
0
 62
     6
100
AcDbLine
 10
407.9999999999982
 20
237.0000000000022
 30
0.0
 11
406.9999999999981
 21
237.0000000000022
 31
0.0
  0
LINE
  5
F9
330
D8
100
AcDbEntity
  8
0
 62
     6
100
AcDbLine
 10
407.9999999999982
 20
231.0000000000022
 30
0.0
 11
406.9999999999981
 21
231.0000000000022
 31
0.0
  0
LINE
  5
FA
330
D8
100
AcDbEntity
  8
0
 62
     6
100
AcDbLine
 10
407.9999999999982
 20
225.0000000000022
 30
0.0
 11
406.9999999999981
 21
225.0000000000022
 31
0.0
  0
LINE
  5
FB
330
D8
100
AcDbEntity
  8
0
 62
     6
100
AcDbLine
 10
407.9999999999982
 20
219.0000000000022
 30
0.0
 11
406.9999999999981
 21
219.0000000000022
 31
0.0
  0
LINE
  5
FC
330
D8
100
AcDbEntity
  8
0
 62
     6
100
AcDbLine
 10
407.9999999999982
 20
213.0000000000022
 30
0.0
 11
406.9999999999981
 21
213.0000000000022
 31
0.0
  0
LINE
  5
FD
330
D8
100
AcDbEntity
  8
0
 62
     6
100
AcDbLine
 10
407.9999999999982
 20
207.0000000000022
 30
0.0
 11
406.9999999999981
 21
207.0000000000022
 31
0.0
  0
LINE
  5
FE
330
D8
100
AcDbEntity
  8
0
 62
     6
100
AcDbLine
 10
407.9999999999982
 20
201.0000000000022
 30
0.0
 11
406.9999999999981
 21
201.0000000000022
 31
0.0
  0
LINE
  5
FF
330
D8
100
AcDbEntity
  8
0
 62
     6
100
AcDbLine
 10
407.9999999999982
 20
195.0000000000022
 30
0.0
 11
406.9999999999981
 21
195.0000000000022
 31
0.0
  0
LINE
  5
100
330
D8
100
AcDbEntity
  8
0
 62
     6
100
AcDbLine
 10
407.9999999999982
 20
189.0000000000022
 30
0.0
 11
406.9999999999981
 21
189.0000000000022
 31
0.0
  0
LINE
  5
101
330
D8
100
AcDbEntity
  8
0
 62
     6
100
AcDbLine
 10
407.9999999999982
 20
183.0000000000022
 30
0.0
 11
406.9999999999981
 21
183.0000000000022
 31
0.0
  0
LINE
  5
102
330
D8
100
AcDbEntity
  8
0
 62
     6
100
AcDbLine
 10
407.9999999999982
 20
177.0000000000022
 30
0.0
 11
406.9999999999981
 21
177.0000000000022
 31
0.0
  0
LINE
  5
103
330
D8
100
AcDbEntity
  8
0
 62
     6
100
AcDbLine
 10
407.9999999999982
 20
171.0000000000022
 30
0.0
 11
406.9999999999981
 21
171.0000000000022
 31
0.0
  0
LINE
  5
104
330
D8
100
AcDbEntity
  8
0
 62
     6
100
AcDbLine
 10
407.9999999999982
 20
165.0000000000022
 30
0.0
 11
406.9999999999981
 21
165.0000000000022
 31
0.0
  0
LINE
  5
105
330
D8
100
AcDbEntity
  8
0
 62
     6
100
AcDbLine
 10
407.9999999999982
 20
159.0000000000022
 30
0.0
 11
406.9999999999981
 21
159.0000000000022
 31
0.0
  0
LINE
  5
106
330
D8
100
AcDbEntity
  8
0
 62
     6
100
AcDbLine
 10
407.9999999999982
 20
153.0000000000022
 30
0.0
 11
406.9999999999981
 21
153.0000000000022
 31
0.0
  0
LINE
  5
107
330
D8
100
AcDbEntity
  8
0
 62
     6
100
AcDbLine
 10
407.9999999999982
 20
147.0000000000022
 30
0.0
 11
406.9999999999981
 21
147.0000000000022
 31
0.0
  0
LINE
  5
108
330
D8
100
AcDbEntity
  8
0
 62
     6
100
AcDbLine
 10
407.9999999999982
 20
141.0000000000022
 30
0.0
 11
406.9999999999981
 21
141.0000000000022
 31
0.0
  0
LINE
  5
109
330
D8
100
AcDbEntity
  8
0
 62
     6
100
AcDbLine
 10
407.9999999999982
 20
123.0000000000022
 30
0.0
 11
406.9999999999981
 21
123.0000000000022
 31
0.0
  0
LINE
  5
10A
330
D8
100
AcDbEntity
  8
0
 62
     6
100
AcDbLine
 10
407.9999999999982
 20
117.0000000000022
 30
0.0
 11
406.9999999999981
 21
117.0000000000022
 31
0.0
  0
LINE
  5
10B
330
D8
100
AcDbEntity
  8
0
 62
     6
100
AcDbLine
 10
407.9999999999982
 20
111.0000000000022
 30
0.0
 11
406.9999999999981
 21
111.0000000000022
 31
0.0
  0
LINE
  5
10C
330
D8
100
AcDbEntity
  8
0
 62
     6
100
AcDbLine
 10
407.9999999999982
 20
105.0000000000022
 30
0.0
 11
406.9999999999981
 21
105.0000000000022
 31
0.0
  0
LINE
  5
10D
330
D8
100
AcDbEntity
  8
0
 62
     6
100
AcDbLine
 10
407.9999999999982
 20
99.00000000000222
 30
0.0
 11
406.9999999999981
 21
99.00000000000222
 31
0.0
  0
LINE
  5
10E
330
D8
100
AcDbEntity
  8
0
 62
     6
100
AcDbLine
 10
407.9999999999982
 20
93.00000000000222
 30
0.0
 11
406.9999999999981
 21
93.00000000000222
 31
0.0
  0
LINE
  5
10F
330
D8
100
AcDbEntity
  8
0
 62
     6
100
AcDbLine
 10
407.9999999999982
 20
87.00000000000221
 30
0.0
 11
406.9999999999981
 21
87.00000000000221
 31
0.0
  0
LINE
  5
110
330
D8
100
AcDbEntity
  8
0
 62
     6
100
AcDbLine
 10
407.9999999999982
 20
81.00000000000221
 30
0.0
 11
406.9999999999981
 21
81.00000000000221
 31
0.0
  0
LINE
  5
111
330
D8
100
AcDbEntity
  8
0
 62
     6
100
AcDbLine
 10
407.9999999999982
 20
75.00000000000222
 30
0.0
 11
406.9999999999981
 21
75.00000000000222
 31
0.0
  0
LINE
  5
112
330
D8
100
AcDbEntity
  8
0
 62
     6
100
AcDbLine
 10
407.9999999999982
 20
69.00000000000222
 30
0.0
 11
406.9999999999981
 21
69.00000000000222
 31
0.0
  0
LINE
  5
113
330
D8
100
AcDbEntity
  8
0
 62
     6
100
AcDbLine
 10
407.9999999999982
 20
63.00000000000221
 30
0.0
 11
406.9999999999981
 21
63.00000000000221
 31
0.0
  0
LINE
  5
114
330
D8
100
AcDbEntity
  8
0
 62
     6
100
AcDbLine
 10
407.9999999999982
 20
261.0000000000022
 30
0.0
 11
406.9999999999981
 21
261.0000000000022
 31
0.0
  0
LINE
  5
115
330
D8
100
AcDbEntity
  8
0
 62
     6
100
AcDbLine
 10
407.9999999999982
 20
267.0000000000022
 30
0.0
 11
406.9999999999981
 21
267.0000000000022
 31
0.0
  0
LINE
  5
116
330
D8
100
AcDbEntity
  8
0
 62
     6
100
AcDbLine
 10
407.9999999999982
 20
273.0000000000022
 30
0.0
 11
406.9999999999981
 21
273.0000000000022
 31
0.0
  0
LINE
  5
117
330
D8
100
AcDbEntity
  8
0
 62
     6
100
AcDbLine
 10
407.9999999999982
 20
279.0000000000022
 30
0.0
 11
406.9999999999981
 21
279.0000000000022
 31
0.0
  0
LINE
  5
118
330
D8
100
AcDbEntity
  8
0
 62
     6
100
AcDbLine
 10
407.9999999999982
 20
135.0000000000022
 30
0.0
 11
406.9999999999981
 21
135.0000000000022
 31
0.0
  0
LINE
  5
119
330
D8
100
AcDbEntity
  8
0
 62
     6
100
AcDbLine
 10
407.9999999999982
 20
129.0000000000022
 30
0.0
 11
406.9999999999981
 21
129.0000000000022
 31
0.0
  0
LINE
  5
11A
330
D8
100
AcDbEntity
  8
Sunpou
 62
     4
100
AcDbLine
 10
0.0
 20
0.0
 30
0.0
 11
407.9999999999995
 21
-0.000000000001819
 31
0.0
  0
ENDBLK
  5
11E
330
D8
100
AcDbEntity
  8
0
 62
     0
100
AcDbBlockEnd
  0
BLOCK
  5
226
330
224
100
AcDbEntity
  8
0
 62
     0
100
AcDbBlockBegin
  2
NOCK1
 70
     0
 10
0.0
 20
0.0
 30
0.0
  3
NOCK1
  1

  0
CIRCLE
  5
227
330
224
100
AcDbEntity
  8
KIKI
  6
ByBlock
 62
     0
100
AcDbCircle
 10
0.0
 20
0.0
 30
0.0
 40
0.5
  0
POLYLINE
  5
22B
330
224
100
AcDbEntity
  8
KIKI
  6
ByBlock
 62
     0
100
AcDb2dPolyline
 66
     1
 10
0.0
 20
0.0
 30
0.0
 40
0.5
 41
0.5
  0
VERTEX
  5
22C
330
22B
100
AcDbEntity
  8
KIKI
  6
ByBlock
 62
     0
100
AcDbVertex
100
AcDb2dVertex
 10
-0.25
 20
0.0
 30
0.0
 42
0.4142135627391079
  0
VERTEX
  5
22D
330
22B
100
AcDbEntity
  8
KIKI
  6
ByBlock
 62
     0
100
AcDbVertex
100
AcDb2dVertex
 10
0.0
 20
-0.2500000003124114
 30
0.0
 42
1.0
  0
SEQEND
  5
22E
330
22B
100
AcDbEntity
  8
KIKI
  6
ByBlock
 62
     0
  0
POLYLINE
  5
22F
330
224
100
AcDbEntity
  8
KIKI
  6
ByBlock
 62
     0
100
AcDb2dPolyline
 66
     1
 10
0.0
 20
0.0
 30
0.0
 40
0.5
 41
0.5
  0
VERTEX
  5
230
330
22F
100
AcDbEntity
  8
KIKI
  6
ByBlock
 62
     0
100
AcDbVertex
100
AcDb2dVertex
 10
0.25
 20
0.0
 30
0.0
 42
0.4142135627391079
  0
VERTEX
  5
231
330
22F
100
AcDbEntity
  8
KIKI
  6
ByBlock
 62
     0
100
AcDbVertex
100
AcDb2dVertex
 10
0.0
 20
0.2500000003124114
 30
0.0
 42
1.0
  0
SEQEND
  5
232
330
22F
100
AcDbEntity
  8
KIKI
  6
ByBlock
 62
     0
  0
ENDBLK
  5
233
330
224
100
AcDbEntity
  8
0
 62
     0
100
AcDbBlockEnd
  0
BLOCK
  5
27C
330
279
100
AcDbEntity
  8
0
100
AcDbBlockBegin
  2
ハンドル外観図-A
 70
     0
 10
0.0
 20
0.0
 30
0.0
  3
ハンドル外観図-A
  1

  0
CIRCLE
  5
27D
330
279
100
AcDbEntity
  8
K-1
  6
ByBlock
 62
     0
370
    25
100
AcDbCircle
 10
24.19829893242422
 20
131.9999999993783
 30
0.0
 40
4.25
  0
LINE
  5
27E
330
279
100
AcDbEntity
  8
K-1
  6
CENTERS
 62
     2
370
    25
100
AcDbLine
 10
17.19829893240876
 20
131.9999999993774
 30
0.0
 11
31.19829893243514
 21
131.9999999993774
 31
0.0
  0
LINE
  5
27F
330
279
100
AcDbEntity
  8
K-1
  6
CENTERS
 62
     2
370
    25
100
AcDbLine
 10
24.19829893240876
 20
138.9999999993783
 30
0.0
 11
24.19829893243696
 21
124.9999999993774
 31
0.0
  0
CIRCLE
  5
280
330
279
100
AcDbEntity
  8
K-1
  6
ByBlock
 62
     0
370
    25
100
AcDbCircle
 10
-35.30170106758942
 20
131.9999999993765
 30
0.0
 40
4.25
  0
LINE
  5
281
330
279
100
AcDbEntity
  8
K-1
  6
CENTERS
 62
     2
370
    25
100
AcDbLine
 10
-42.30170106758123
 20
131.9999999993765
 30
0.0
 11
-28.30170106759124
 21
131.9999999993783
 31
0.0
  0
LINE
  5
282
330
279
100
AcDbEntity
  8
K-1
  6
CENTERS
 62
     2
370
    25
100
AcDbLine
 10
-35.30170106756577
 20
138.9999999993765
 30
0.0
 11
-35.30170106759124
 21
124.9999999993783
 31
0.0
  0
ARC
  5
283
330
279
100
AcDbEntity
  8
K-1
  6
ByBlock
 62
     0
100
AcDbCircle
 10
-26.99418699964918
 20
3.36360940474924
 30
0.0
 40
9.0
100
AcDbArc
 50
307.2660444507651
 51
87.16041159309561
  0
LINE
  5
284
330
279
100
AcDbEntity
  8
K-1
  6
ByBlock
 62
     0
100
AcDbLine
 10
-55.80170106758306
 20
112.200000000628
 30
0.0
 11
-54.74005562036928
 21
112.2000000006275
 31
0.0
  0
LINE
  5
285
330
279
100
AcDbEntity
  8
K-1
  6
CENTER
 62
     2
100
AcDbLine
 10
-25.80170106759306
 20
129.3997502504103
 30
0.0
 11
-25.80170106759215
 21
118.6002497533509
 31
0.0
  0
LWPOLYLINE
  5
286
330
279
100
AcDbEntity
  8
K-1
  6
ByBlock
 62
     0
370
    25
100
AcDbPolyline
 90
        4
 70
     1
 43
0.0
 10
-21.80170106758942
 20
121.0000000018799
 10
-29.80170106758578
 20
121.0000000018785
 42
-0.9999999999999998
 10
-29.80170106760033
 20
127.0000000018785
 10
-21.80170106757669
 20
127.0000000018776
 42
-0.9999999999999998
  0
LINE
  5
287
330
279
100
AcDbEntity
  8
K-1
  6
CENTER
 62
     2
370
    25
100
AcDbLine
 10
-35.71156845205496
 20
124.0000000018776
 30
0.0
 11
-15.93331266028508
 21
124.0000000018794
 31
0.0
  0
LINE
  5
288
330
279
100
AcDbEntity
  8
K-1
  6
ByBlock
 62
     0
100
AcDbLine
 10
52.19829893241694
 20
127.9999999993802
 30
0.0
 11
52.19829893243058
 21
120.352653960796
 31
0.0
  0
LINE
  5
289
330
279
100
AcDbEntity
  8
K-1
  6
ByBlock
 62
     0
370
    25
100
AcDbLine
 10
-23.39984810407532
 20
23.29049395502693
 30
0.0
 11
-35.64188083768931
 21
76.31656339285973
 31
0.0
  0
LINE
  5
28A
330
279
100
AcDbEntity
  8
K-1
  6
ByBlock
 62
     0
100
AcDbLine
 10
52.19829893241694
 20
127.9999999993802
 30
0.0
 11
52.19829893240512
 21
136.9999999993811
 31
0.0
  0
LINE
  5
28B
330
279
100
AcDbEntity
  8
K-1
  6
ByBlock
 62
     6
370
    25
100
AcDbLine
 10
-49.8017010675876
 20
85.00000000062664
 30
0.0
 11
-49.80170106758305
 21
86.63768201212997
 31
0.0
  0
LINE
  5
28C
330
279
100
AcDbEntity
  8
K-1
  6
ByBlock
 62
     0
370
    25
100
AcDbLine
 10
-49.80170106759215
 20
87.51729889415992
 30
0.0
 11
-49.8017010675785
 21
89.75378874940725
 31
0.0
  0
LINE
  5
28D
330
279
100
AcDbEntity
  8
K-1
  6
ByBlock
 62
     0
370
    25
100
AcDbLine
 10
-57.80170106758214
 20
114.2000000006285
 30
0.0
 11
-57.8017010675785
 21
129.4999999993752
 31
0.0
  0
LINE
  5
28E
330
279
100
AcDbEntity
  8
K-1
  6
CENTER
 62
     2
100
AcDbLine
 10
-25.43135340064328
 20
-5.499660372361176
 30
0.0
 11
-28.55702059865052
 21
12.22687918185875
 31
0.0
  0
LINE
  5
28F
330
279
100
AcDbEntity
  8
K-1
  6
CENTER
 62
     2
100
AcDbLine
 10
-35.85745677675459
 20
1.800775805745615
 30
0.0
 11
-18.13091722254376
 21
4.926443003751501
 31
0.0
  0
LINE
  5
290
330
279
100
AcDbEntity
  8
K-1
  6
ByBlock
 62
     0
100
AcDbLine
 10
-24.62019382531617
 20
-4.341204441677291
 30
0.0
 11
21.6657705664893
 21
3.820259908705338
 31
0.0
  0
LINE
  5
291
330
279
100
AcDbEntity
  8
K-1
  6
ByBlock
 62
     0
370
    25
100
AcDbLine
 10
51.69829893240785
 20
137.499999999382
 30
0.0
 11
-57.30170106758487
 21
137.4999999993811
 31
0.0
  0
ARC
  5
292
330
279
100
AcDbEntity
  8
K-1
  6
ByBlock
 62
     0
370
    25
100
AcDbCircle
 10
51.69829893240967
 20
136.9999999993829
 30
0.0
 40
0.5
100
AcDbArc
 50
0.0000000000521102
 51
90.0
  0
LINE
  5
293
330
279
100
AcDbEntity
  8
K-1
  6
ByBlock
 62
     0
370
    25
100
AcDbLine
 10
12.62062390255596
 20
113.3740420193203
 30
0.0
 11
52.19829893243058
 21
120.352653960796
 31
0.0
  0
LINE
  5
294
330
279
100
AcDbEntity
  8
K-1
  6
ByBlock
 62
     0
100
AcDbLine
 10
-57.8017010675785
 20
129.4999999993752
 30
0.0
 11
-57.80170106758487
 21
136.9999999993829
 31
0.0
  0
ARC
  5
295
330
279
100
AcDbEntity
  8
K-1
  6
ByBlock
 62
     0
100
AcDbCircle
 10
-57.30170106759397
 20
136.9999999993847
 30
0.0
 40
0.5
100
AcDbArc
 50
90.0
 51
180.0
  0
CIRCLE
  5
296
330
279
100
AcDbEntity
  8
K-1
  6
ByBlock
 62
     0
100
AcDbCircle
 10
24.19829893240148
 20
131.9999999993783
 30
0.0
 40
2.25
  0
CIRCLE
  5
297
330
279
100
AcDbEntity
  8
K-1
  6
ByBlock
 62
     0
100
AcDbCircle
 10
-35.30170106758851
 20
131.9999999993774
 30
0.0
 40
2.25
  0
LINE
  5
298
330
279
100
AcDbEntity
  8
K-1
  6
CENTERS
 62
     2
100
AcDbLine
 10
-58.80170106758396
 20
118.9999999993765
 30
0.0
 11
-44.80170106759487
 21
118.9999999993802
 31
0.0
  0
LINE
  5
299
330
279
100
AcDbEntity
  8
K-1
  6
CENTERS
 62
     2
100
AcDbLine
 10
-51.80170106757032
 20
125.9999999993792
 30
0.0
 11
-51.80170106758942
 21
111.999999999377
 31
0.0
  0
LINE
  5
29A
330
279
100
AcDbEntity
  8
K-1
  6
CENTERS
 62
     2
100
AcDbLine
 10
9.03932219370381
 20
17.84070218023089
 30
0.0
 11
22.82663073587264
 21
20.27177666756461
 31
0.0
  0
LINE
  5
29B
330
279
100
AcDbEntity
  8
K-1
  6
CENTERS
 62
     2
100
AcDbLine
 10
14.71743922112
 20
25.94989369498217
 30
0.0
 11
17.14851370845827
 21
12.16258515281515
 31
0.0
  0
LINE
  5
29C
330
279
100
AcDbEntity
  8
K-1
  6
ByBlock
 62
     0
370
    25
100
AcDbLine
 10
23.2880897171799
 20
6.13717177006265
 30
0.0
 11
20.73470268744586
 21
20.61814921029827
 31
0.0
  0
ARC
  5
29D
330
279
100
AcDbEntity
  8
K-1
  6
ByBlock
 62
     0
100
AcDbCircle
 10
-26.00937924663867
 20
3.537257582416032
 30
0.0
 40
8.0
100
AcDbArc
 50
130.0000000000209
 51
280.000000000005
  0
LINE
  5
29E
330
279
100
AcDbEntity
  8
K-1
  6
ByBlock
 62
     6
370
    25
100
AcDbLine
 10
-37.13079938614374
 20
82.76577816428925
 30
0.0
 11
-40.78414321524087
 21
83.40996125116134
 31
0.0
  0
LINE
  5
29F
330
279
100
AcDbEntity
  8
K-1
  6
ByBlock
 62
     0
370
    25
100
AcDbLine
 10
-43.64909970886674
 20
83.91513037954201
 30
0.0
 11
-47.32264560058502
 21
84.56287563512296
 31
0.0
  0
LINE
  5
2A0
330
279
100
AcDbEntity
  8
K-1
  6
ByBlock
 62
     6
370
    25
100
AcDbLine
 10
-48.2089859902926
 20
84.71916135992296
 30
0.0
 11
-49.8017010675876
 21
85.00000000062664
 31
0.0
  0
ARC
  5
2A1
330
279
100
AcDbEntity
  8
K-1
  6
ByBlock
 62
     0
100
AcDbCircle
 10
-46.80170106759852
 20
87.51729889416173
 30
0.0
 40
3.0
100
AcDbArc
 50
180.0
 51
259.999999999995
  0
LINE
  5
2A2
330
279
100
AcDbEntity
  8
K-1
  6
ByBlock
 62
     6
100
AcDbLine
 10
-57.80170106759943
 20
118.9999999993765
 30
0.0
 11
-54.8017010675776
 21
118.9999999993764
 31
0.0
  0
LINE
  5
2A3
330
279
100
AcDbEntity
  8
K-1
  6
ByBlock
 62
     6
100
AcDbLine
 10
2.19829893241058
 20
118.9999999993756
 30
0.0
 11
52.19829893241239
 21
127.8163490347974
 31
0.0
  0
ARC
  5
2A4
330
279
100
AcDbEntity
  8
K-1
  6
ByBlock
 62
     0
100
AcDbCircle
 10
-65.80170106758941
 20
98.00000000062802
 30
0.0
 40
18.0
100
AcDbArc
 50
332.7339555493617
 51
52.08179734355184
  0
ARC
  5
2A5
330
279
100
AcDbEntity
  8
K-1
  6
HIDDEN
 62
     3
100
AcDbCircle
 10
-31.91822576471168
 20
2.495368516413236
 30
0.0
 40
12.0
100
AcDbArc
 50
328.1896851042955
 51
64.62431835217184
  0
CIRCLE
  5
2A6
330
279
100
AcDbEntity
  8
K-1
  6
ByBlock
 62
     0
100
AcDbCircle
 10
-51.8017010675776
 20
118.9999999993792
 30
0.0
 40
3.0
  0
LINE
  5
2A7
330
279
100
AcDbEntity
  8
K-1
  6
CENTERS
 62
     2
100
AcDbLine
 10
-2.945411134674031
 20
68.53319096770656
 30
0.0
 11
10.84189740748661
 21
70.96426545504392
 31
0.0
  0
LINE
  5
2A8
330
279
100
AcDbEntity
  8
K-1
  6
CENTERS
 62
     2
100
AcDbLine
 10
2.732705892743979
 20
76.64238248246192
 30
0.0
 11
5.163780380083153
 21
62.85507394029218
 31
0.0
  0
LINE
  5
2A9
330
279
100
AcDbEntity
  8
K-1
  6
CENTERS
 62
     2
100
AcDbLine
 10
-34.45925923105278
 20
62.97644928236514
 30
0.0
 11
-20.67195068889578
 21
65.40752376970203
 31
0.0
  0
LINE
  5
2AA
330
279
100
AcDbEntity
  8
K-1
  6
CENTERS
 62
     2
100
AcDbLine
 10
-28.78114220365205
 20
71.08564079711732
 30
0.0
 11
-26.3500677162956
 21
57.2983322549494
 31
0.0
  0
LINE
  5
2AB
330
279
100
AcDbEntity
  8
K-1
  6
ByBlock
 62
     6
100
AcDbLine
 10
-57.8017010675785
 20
126.9999999993774
 30
0.0
 11
2.198298932405123
 21
126.9999999993779
 31
0.0
  0
LINE
  5
2AC
330
279
100
AcDbEntity
  8
K-1
  6
ByBlock
 62
     6
100
AcDbLine
 10
2.198298932405123
 20
126.9999999993779
 30
0.0
 11
20.53064276999339
 21
129.8527230553894
 31
0.0
  0
ARC
  5
2AD
330
279
100
AcDbEntity
  8
K-1
  6
ByBlock
 62
     0
370
    25
100
AcDbCircle
 10
-45.38558148554057
 20
74.06705284942018
 30
0.0
 40
10.0
100
AcDbArc
 50
13.00000000002394
 51
79.99999999999499
  0
LINE
  5
2AE
330
279
100
AcDbEntity
  8
K-1
  6
ByBlock
 62
     6
370
    25
100
AcDbLine
 10
-36.27887218805154
 20
79.07567605906251
 30
0.0
 11
-37.13079938614374
 21
82.76577816428925
 31
0.0
  0
LINE
  5
2AF
330
279
100
AcDbEntity
  8
K-1
  6
ByBlock
 62
     6
370
    25
100
AcDbLine
 10
-22.30616081514745
 20
17.087885117116
 30
0.0
 11
-22.74699577349202
 21
19.58798440180453
 31
0.0
  0
LINE
  5
2B0
330
279
100
AcDbEntity
  8
K-1
  6
ByBlock
 62
     6
370
    25
100
AcDbLine
 10
-22.30616081514745
 20
17.087885117116
 30
0.0
 11
-24.22871596151799
 21
15.47466980287208
 31
0.0
  0
ARC
  5
2B1
330
279
100
AcDbEntity
  8
K-1
  6
ByBlock
 62
     0
100
AcDbCircle
 10
-30.98666941620923
 20
20.24733186617959
 30
0.0
 40
8.0
100
AcDbArc
 50
310.0000000000209
 51
10.00000000021067
  0
LINE
  5
2B2
330
279
100
AcDbEntity
  8
K-1
  6
ByBlock
 62
     0
370
    25
100
AcDbLine
 10
-23.10820739213068
 20
21.63651728754167
 30
0.0
 11
-23.39984810407532
 21
23.29049395502693
 31
0.0
  0
LINE
  5
2B3
330
279
100
AcDbEntity
  8
K-1
  6
ByBlock
 62
     0
370
    25
100
AcDbLine
 10
-25.8443685387274
 20
14.11897632122964
 30
0.0
 11
-31.15168012413779
 21
9.665613127367123
 31
0.0
  0
LINE
  5
2B4
330
279
100
AcDbEntity
  8
K-1
  6
ByBlock
 62
     6
370
    25
100
AcDbLine
 10
14.02284651055925
 20
29.88912470642117
 30
0.0
 11
13.80981194097785
 21
31.0973037878257
 31
0.0
  0
LINE
  5
2B5
330
279
100
AcDbEntity
  8
K-1
  6
ByBlock
 62
     6
100
AcDbLine
 10
14.02284651055925
 20
29.88912470642117
 30
0.0
 11
14.76181381430251
 21
28.97835220938669
 31
0.0
  0
LINE
  5
2B6
330
279
100
AcDbEntity
  8
K-1
  6
ByBlock
 62
     6
370
    25
100
AcDbLine
 10
20.58708953455789
 20
21.4553050005311
 30
0.0
 11
20.50971887451851
 21
21.89409581826112
 31
0.0
  0
ARC
  5
2B7
330
279
100
AcDbEntity
  8
K-1
  6
ByBlock
 62
     0
100
AcDbCircle
 10
-147.1912062944311
 20
40.05248559163056
 30
0.0
 40
160.0
100
AcDbArc
 50
358.8873100836181
 51
20.47637507235019
  0
ARC
  5
2B8
330
279
100
AcDbEntity
  8
K-1
  6
ByBlock
 62
     0
100
AcDbCircle
 10
14.87805021222539
 20
100.5715412301615
 30
0.0
 40
13.0
100
AcDbArc
 50
100.000000000005
 51
200.4763750723502
  0
LINE
  5
2B9
330
279
100
AcDbEntity
  8
K-1
  6
ByBlock
 62
     6
100
AcDbLine
 10
20.1653303966541
 20
22.31855242457186
 30
0.0
 11
20.50971887450851
 21
21.89409581825839
 31
0.0
  0
ARC
  5
2BA
330
279
100
AcDbEntity
  8
K-1
  6
ByBlock
 62
     0
100
AcDbCircle
 10
15.81066392238426
 20
19.74990832196226
 30
0.0
 40
5.0
100
AcDbArc
 50
10.00000000000502
 51
39.05460410076138
  0
ARC
  5
2BB
330
279
100
AcDbEntity
  8
K-1
  6
ByBlock
 62
     0
100
AcDbCircle
 10
23.42095641481501
 20
34.17749969901115
 30
0.0
 40
10.0
100
AcDbArc
 50
190.0000000000146
 51
219.0546041007639
  0
LINE
  5
2BC
330
279
100
AcDbEntity
  8
K-1
  6
ByBlock
 62
     0
100
AcDbLine
 10
15.65549788619591
 20
27.87689228065028
 30
0.0
 11
19.69339318669426
 21
22.90021203114293
 31
0.0
  0
LINE
  5
2BD
330
279
100
AcDbEntity
  8
K-1
  6
ByBlock
 62
     0
370
    25
100
AcDbLine
 10
13.57287888470364
 20
32.44101792232596
 30
0.0
 11
12.77862342301705
 21
36.94546448228221
 31
0.0
  0
ARC
  5
2BE
330
279
100
AcDbEntity
  8
K-1
  6
ByBlock
 62
     0
370
    25
100
AcDbCircle
 10
21.31847421115526
 20
5.789875414729294
 30
0.0
 40
2.0
100
AcDbArc
 50
280.000000000005
 51
9.999999999978232
  0
LINE
  5
2BF
330
279
100
AcDbEntity
  8
K-1
  6
ByBlock
 62
     6
100
AcDbLine
 10
-4.520312955928602
 20
26.6194653848894
 30
0.0
 11
14.35922219221811
 21
29.94843681475186
 31
0.0
  0
LINE
  5
2C0
330
279
100
AcDbEntity
  8
K-1
  6
ByBlock
 62
     6
100
AcDbLine
 10
23.28808971717899
 20
6.137171770061684
 30
0.0
 11
-19.3460066921325
 21
-1.380369725023058
 31
0.0
  0
LINE
  5
2C1
330
279
100
AcDbEntity
  8
K-1
  6
ByBlock
 62
     0
100
AcDbLine
 10
-26.54832806858849
 20
12.3525587211929
 30
0.0
 11
-26.72892046967081
 21
13.37674912221837
 31
0.0
  0
LINE
  5
2C2
330
279
100
AcDbEntity
  8
K-1
  6
ByBlock
 62
     6
100
AcDbLine
 10
-49.8017010675785
 20
126.9999999993774
 30
0.0
 11
-49.80170106758487
 21
137.4999999993811
 31
0.0
  0
LINE
  5
2C3
330
279
100
AcDbEntity
  8
K-1
  6
ByBlock
 62
     6
100
AcDbLine
 10
28.34501253313101
 20
131.0687286566915
 30
0.0
 11
52.1982989324224
 21
134.7805737254812
 31
0.0
  0
LINE
  5
2C4
330
279
100
AcDbEntity
  8
K-1
  6
ByBlock
 62
     6
100
AcDbLine
 10
-46.80170106758033
 20
118.9999999993796
 30
0.0
 11
2.19829893241058
 21
118.9999999993756
 31
0.0
  0
ARC
  5
2C5
330
279
100
AcDbEntity
  8
K-1
  6
ByBlock
 62
     0
370
    25
100
AcDbCircle
 10
-55.80170106758214
 20
114.200000000628
 30
0.0
 40
2.0
100
AcDbArc
 50
179.999999999987
 51
269.9999999999479
  0
CIRCLE
  5
2C6
330
279
100
AcDbEntity
  8
K-1
  6
ByBlock
 62
     0
100
AcDbCircle
 10
-51.80170106758033
 20
118.9999999993428
 30
0.0
 40
1.25
  0
LINE
  5
2C7
330
279
100
AcDbEntity
  8
K-1
  6
ByBlock
 62
     6
100
AcDbLine
 10
2.198298932405123
 20
126.9999999993774
 30
0.0
 11
2.19829893241058
 21
118.9999999993752
 31
0.0
  0
LINE
  5
2C8
330
279
100
AcDbEntity
  8
K-1
  6
ByBlock
 62
     6
100
AcDbLine
 10
20.34153103368135
 20
21.86443976409447
 30
0.0
 11
-26.44541443245453
 21
13.61463893348201
 31
0.0
  0
ARC
  5
2C9
330
279
100
AcDbEntity
  8
K-1
  6
ByBlock
 62
     6
370
    25
100
AcDbCircle
 10
-35.80170106757942
 20
100.0000000006366
 30
0.0
 40
9.999999999999886
100
AcDbArc
 50
277.759164230652
 51
79.53903431406004
  0
LINE
  5
2CA
330
279
100
AcDbEntity
  8
K-1
  6
ByBlock
 62
     6
370
    25
100
AcDbLine
 10
-49.80170106758942
 20
88.00000000062619
 30
0.0
 11
-34.45160693175149
 21
90.0915568421783
 31
0.0
  0
LINE
  5
2CB
330
279
100
AcDbEntity
  8
K-1
  6
ByBlock
 62
     6
370
    25
100
AcDbLine
 10
-44.10104027737998
 20
111.7013649695693
 30
0.0
 11
-33.98604492755476
 21
109.8337883236171
 31
0.0
  0
ARC
  5
2CC
330
279
100
AcDbEntity
  8
K-1
  6
ByBlock
 62
     6
370
    25
100
AcDbCircle
 10
-49.54800869745486
 20
82.20000000062748
 30
0.0
 40
30.0
100
AcDbArc
 50
79.53903431406004
 51
84.74758521865494
  0
ARC
  5
2CD
330
279
100
AcDbEntity
  8
K-1
  6
ByBlock
 62
     6
370
    25
100
AcDbCircle
 10
-41.80170106758033
 20
116.3613382312104
 30
0.0
 40
5.0
100
AcDbArc
 50
180.0
 51
259.53903431406
  0
LWPOLYLINE
  5
2CE
330
279
100
AcDbEntity
  8
K-1
  6
ByBlock
 62
     0
370
    25
100
AcDbPolyline
 90
        5
 70
     0
 43
0.0
 10
-46.80170106758033
 20
107.0736942529105
 10
-46.80170106758033
 20
118.9999999993796
 42
0.4142135623708708
 10
-51.80170106758033
 20
123.9999999993416
 10
-55.88649144068949
 20
123.9999999993416
 10
-54.10766833544676
 20
120.918988003384
  0
ENDBLK
  5
2CF
330
279
100
AcDbEntity
  8
0
100
AcDbBlockEnd
  0
BLOCK
  5
18A
330
189
100
AcDbEntity
  8
0
 62
     0
100
AcDbBlockBegin
  2
*D12
 70
     1
 10
0.0
 20
0.0
 30
0.0
  3
*D12
  1

  0
LINE
  5
18B
330
189
100
AcDbEntity
  8
SUNPO
100
AcDbLine
 10
21.54536387747373
 20
1070.941500590426
 30
0.0
 11
21.54536387747373
 21
1118.81049589712
 31
0.0
  0
LINE
  5
18C
330
189
100
AcDbEntity
  8
SUNPO
100
AcDbLine
 10
65.54536387747361
 20
1070.966016060788
 30
0.0
 11
65.54536387747361
 21
1118.81049589712
 31
0.0
  0
LINE
  5
18D
330
189
100
AcDbEntity
  8
SUNPO
100
AcDbLine
 10
24.54536387747374
 20
1117.81049589712
 30
0.0
 11
62.54536387747362
 21
1117.81049589712
 31
0.0
  0
INSERT
  5
18E
330
189
100
AcDbEntity
  8
SUNPO
100
AcDbBlockReference
  2
_Open30
 10
21.54536387747373
 20
1117.81049589712
 30
0.0
 41
3.0
 42
3.0
 43
3.0
 50
180.0
  0
INSERT
  5
18F
330
189
100
AcDbEntity
  8
SUNPO
100
AcDbBlockReference
  2
_Open30
 10
65.54536387747361
 20
1117.81049589712
 30
0.0
 41
3.0
 42
3.0
 43
3.0
  0
MTEXT
  5
190
330
189
100
AcDbEntity
  8
SUNPO
 62
     7
370
    25
100
AcDbMText
 10
43.54536387747367
 20
1121.31049589712
 30
0.0
 40
4.0
 41
0.0
 71
     5
 72
     1
  1
\A1;44
  7
K1
 73
     1
 44
1.0
1001
ACAD
1000
MTEXTBEGIN
1070
    73
1070
     1
1070
    44
1040
1.0
1070
    74
1070
     0
1000
MTEXTEND
  0
POINT
  5
191
330
189
100
AcDbEntity
  8
Defpoints
 62
     0
100
AcDbPoint
 10
21.54536387747373
 20
1069.941500590426
 30
0.0
  0
POINT
  5
193
330
189
100
AcDbEntity
  8
Defpoints
 62
     0
100
AcDbPoint
 10
65.54536387747361
 20
1069.966016060788
 30
0.0
  0
POINT
  5
194
330
189
100
AcDbEntity
  8
Defpoints
 62
     0
100
AcDbPoint
 10
65.54536387747361
 20
1117.81049589712
 30
0.0
  0
ENDBLK
  5
195
330
189
100
AcDbEntity
  8
0
 62
     0
100
AcDbBlockEnd
  0
BLOCK
  5
19B
330
19A
100
AcDbEntity
  8
0
 62
     0
100
AcDbBlockBegin
  2
*D13
 70
     1
 10
0.0
 20
0.0
 30
0.0
  3
*D13
  1

  0
LINE
  5
19C
330
19A
100
AcDbEntity
  8
SUNPO
100
AcDbLine
 10
68.68070805707862
 20
1060.362104600223
 30
0.0
 11
87.33486002481118
 21
1060.362104600223
 31
0.0
  0
LINE
  5
19D
330
19A
100
AcDbEntity
  8
SUNPO
100
AcDbLine
 10
54.14237110370436
 20
1082.362104600223
 30
0.0
 11
87.33486002481118
 21
1082.362104600223
 31
0.0
  0
LINE
  5
19E
330
19A
100
AcDbEntity
  8
SUNPO
100
AcDbLine
 10
86.33486002481118
 20
1063.362104600223
 30
0.0
 11
86.33486002481118
 21
1079.362104600223
 31
0.0
  0
INSERT
  5
19F
330
19A
100
AcDbEntity
  8
SUNPO
100
AcDbBlockReference
  2
_Open30
 10
86.33486002481118
 20
1060.362104600223
 30
0.0
 41
3.0
 42
3.0
 43
3.0
 50
270.0
  0
INSERT
  5
1A0
330
19A
100
AcDbEntity
  8
SUNPO
100
AcDbBlockReference
  2
_Open30
 10
86.33486002481118
 20
1082.362104600223
 30
0.0
 41
3.0
 42
3.0
 43
3.0
 50
90.0
  0
MTEXT
  5
1A1
330
19A
100
AcDbEntity
  8
SUNPO
 62
     7
370
    25
100
AcDbMText
 10
82.83486002481101
 20
1071.362104600223
 30
0.0
 40
4.0
 41
0.0
 71
     5
 72
     1
  1
\A1;22
  7
K1
 11
0.0000000000000001
 21
1.0
 31
0.0
 73
     1
 44
1.0
1001
ACAD
1000
MTEXTBEGIN
1070
    73
1070
     1
1070
    44
1040
1.0
1070
    74
1070
     0
1000
MTEXTEND
  0
POINT
  5
1A2
330
19A
100
AcDbEntity
  8
Defpoints
 62
     0
100
AcDbPoint
 10
67.68070805707862
 20
1060.362104600223
 30
0.0
  0
POINT
  5
1A3
330
19A
100
AcDbEntity
  8
Defpoints
 62
     0
100
AcDbPoint
 10
53.14237110370436
 20
1082.362104600223
 30
0.0
  0
POINT
  5
1A4
330
19A
100
AcDbEntity
  8
Defpoints
 62
     0
100
AcDbPoint
 10
86.33486002481118
 20
1082.362104600223
 30
0.0
  0
ENDBLK
  5
1A5
330
19A
100
AcDbEntity
  8
0
 62
     0
100
AcDbBlockEnd
  0
BLOCK
  5
1AA
330
1A9
100
AcDbEntity
  8
0
 62
     0
100
AcDbBlockBegin
  2
*D14
 70
     1
 10
0.0
 20
0.0
 30
0.0
  3
*D14
  1

  0
LINE
  5
1AB
330
1A9
100
AcDbEntity
  8
SUNPO
100
AcDbLine
 10
68.68070805707862
 20
1060.362104600223
 30
0.0
 11
87.3348600248112
 21
1060.362104600223
 31
0.0
  0
LINE
  5
1AC
330
1A9
100
AcDbEntity
  8
SUNPO
100
AcDbLine
 10
51.55070805707862
 20
1008.362104601474
 30
0.0
 11
87.33486002481118
 21
1008.362104601474
 31
0.0
  0
LINE
  5
1AD
330
1A9
100
AcDbEntity
  8
SUNPO
100
AcDbLine
 10
86.33486002481118
 20
1057.362104600223
 30
0.0
 11
86.33486002481118
 21
1011.362104601474
 31
0.0
  0
INSERT
  5
1AE
330
1A9
100
AcDbEntity
  8
SUNPO
100
AcDbBlockReference
  2
_Open30
 10
86.33486002481118
 20
1060.362104600223
 30
0.0
 41
3.0
 42
3.0
 43
3.0
 50
90.0
  0
INSERT
  5
1AF
330
1A9
100
AcDbEntity
  8
SUNPO
100
AcDbBlockReference
  2
_Open30
 10
86.33486002481118
 20
1008.362104601474
 30
0.0
 41
3.0
 42
3.0
 43
3.0
 50
270.0
  0
MTEXT
  5
1B0
330
1A9
100
AcDbEntity
  8
SUNPO
 62
     7
370
    25
100
AcDbMText
 10
82.83486002481101
 20
1034.362104600848
 30
0.0
 40
4.0
 41
0.0
 71
     5
 72
     1
  1
\A1;52
  7
K1
 11
0.0000000000000001
 21
1.0
 31
0.0
 73
     1
 44
1.0
1001
ACAD
1000
MTEXTBEGIN
1070
    73
1070
     1
1070
    44
1040
1.0
1070
    74
1070
     0
1000
MTEXTEND
  0
POINT
  5
1B1
330
1A9
100
AcDbEntity
  8
Defpoints
 62
     0
100
AcDbPoint
 10
67.68070805707862
 20
1060.362104600223
 30
0.0
  0
POINT
  5
1B2
330
1A9
100
AcDbEntity
  8
Defpoints
 62
     0
100
AcDbPoint
 10
50.55070805707862
 20
1008.362104601474
 30
0.0
  0
POINT
  5
1B3
330
1A9
100
AcDbEntity
  8
Defpoints
 62
     0
100
AcDbPoint
 10
86.33486002481118
 20
1008.362104601474
 30
0.0
  0
ENDBLK
  5
1B4
330
1A9
100
AcDbEntity
  8
0
 62
     0
100
AcDbBlockEnd
  0
BLOCK
  5
1B9
330
1B8
100
AcDbEntity
  8
0
 62
     0
100
AcDbBlockBegin
  2
*D15
 70
     1
 10
0.0
 20
0.0
 30
0.0
  3
*D15
  1

  0
LINE
  5
1BA
330
1B8
100
AcDbEntity
  8
SUNPO
100
AcDbLine
 10
43.19034547510688
 20
1066.719256439523
 30
0.0
 11
78.03516822146417
 21
1101.564079185881
 31
0.0
  0
LINE
  5
1BB
330
1B8
100
AcDbEntity
  8
SUNPO
100
AcDbLine
 10
49.90785989637942
 20
1060.001742018251
 30
0.0
 11
84.75268264273671
 21
1094.846564764608
 31
0.0
  0
LINE
  5
1BC
330
1B8
100
AcDbEntity
  8
SUNPO
100
AcDbLine
 10
79.44938178383728
 20
1098.735652061135
 30
0.0
 11
81.9242555179905
 21
1096.260778326982
 31
0.0
  0
LINE
  5
1BD
330
1B8
100
AcDbEntity
  8
SUNPO
100
AcDbLine
 10
84.04557586155016
 20
1094.139457983422
 30
0.0
 11
95.62955628578851
 21
1082.555477559184
 31
0.0
  0
INSERT
  5
1BE
330
1B8
100
AcDbEntity
  8
SUNPO
100
AcDbBlockReference
  2
_Open30
 10
77.32806144027762
 20
1100.856972404694
 30
0.0
 41
3.0
 42
3.0
 43
3.0
 50
135.0000000000004
  0
INSERT
  5
1BF
330
1B8
100
AcDbEntity
  8
SUNPO
100
AcDbBlockReference
  2
_Open30
 10
84.04557586155016
 20
1094.139457983422
 30
0.0
 41
3.0
 42
3.0
 43
3.0
 50
315.0000000000005
  0
MTEXT
  5
1C0
330
1B8
100
AcDbEntity
  8
SUNPO
 62
     7
370
    25
100
AcDbMText
 10
93.37309997960199
 20
1089.761681333676
 30
0.0
 40
4.0
 41
0.0
 71
     5
 72
     1
  1
\A1;□9.5
  7
K1
 11
0.7071067811865529
 21
-0.7071067811865422
 31
0.0
 73
     1
 44
1.0
1001
ACAD
1000
MTEXTBEGIN
1070
    73
1070
     1
1070
    44
1040
1.0
1070
    74
1070
     0
1000
MTEXTEND
  0
POINT
  5
1C1
330
1B8
100
AcDbEntity
  8
Defpoints
 62
     0
100
AcDbPoint
 10
42.48323869392033
 20
1066.012149658337
 30
0.0
  0
POINT
  5
1C2
330
1B8
100
AcDbEntity
  8
Defpoints
 62
     0
100
AcDbPoint
 10
49.20075311519287
 20
1059.294635237064
 30
0.0
  0
POINT
  5
1C3
330
1B8
100
AcDbEntity
  8
Defpoints
 62
     0
100
AcDbPoint
 10
84.04557586155016
 20
1094.139457983422
 30
0.0
  0
ENDBLK
  5
1C4
330
1B8
100
AcDbEntity
  8
0
 62
     0
100
AcDbBlockEnd
  0
BLOCK
  5
1E0
330
1DF
100
AcDbEntity
  8
0
 62
     0
100
AcDbBlockBegin
  2
*D16
 70
     1
 10
0.0
 20
0.0
 30
0.0
  3
*D16
  1

  0
LINE
  5
1E1
330
1DF
100
AcDbEntity
  8
SUNPO
100
AcDbLine
 10
62.55070805701234
 20
1076.024982898636
 30
0.0
 11
62.55070805701234
 21
1109.362094531465
 31
0.0
  0
LINE
  5
1E2
330
1DF
100
AcDbEntity
  8
SUNPO
100
AcDbLine
 10
24.55070805714513
 20
1076.024982898924
 30
0.0
 11
24.55070805714513
 21
1109.362094531465
 31
0.0
  0
LINE
  5
1E3
330
1DF
100
AcDbEntity
  8
SUNPO
100
AcDbLine
 10
59.55070805701234
 20
1108.362094531465
 30
0.0
 11
27.55070805714514
 21
1108.362094531465
 31
0.0
  0
INSERT
  5
1E4
330
1DF
100
AcDbEntity
  8
SUNPO
100
AcDbBlockReference
  2
_Open30
 10
62.55070805701234
 20
1108.362094531465
 30
0.0
 41
3.0
 42
3.0
 43
3.0
  0
INSERT
  5
1E5
330
1DF
100
AcDbEntity
  8
SUNPO
100
AcDbBlockReference
  2
_Open30
 10
24.55070805714513
 20
1108.362094531465
 30
0.0
 41
3.0
 42
3.0
 43
3.0
 50
180.0
  0
MTEXT
  5
1E6
330
1DF
100
AcDbEntity
  8
SUNPO
 62
     7
370
    25
100
AcDbMText
 10
43.55070805707874
 20
1111.862094531465
 30
0.0
 40
4.0
 41
0.0
 71
     5
 72
     1
  1
\A1;38
  7
K1
 73
     1
 44
1.0
1001
ACAD
1000
MTEXTBEGIN
1070
    73
1070
     1
1070
    44
1040
1.0
1070
    74
1070
     0
1000
MTEXTEND
  0
POINT
  5
1E7
330
1DF
100
AcDbEntity
  8
Defpoints
 62
     0
100
AcDbPoint
 10
62.55070805701234
 20
1075.024982898636
 30
0.0
  0
POINT
  5
1E8
330
1DF
100
AcDbEntity
  8
Defpoints
 62
     0
100
AcDbPoint
 10
24.55070805714513
 20
1075.024982898924
 30
0.0
  0
POINT
  5
1E9
330
1DF
100
AcDbEntity
  8
Defpoints
 62
     0
100
AcDbPoint
 10
24.55070805714513
 20
1108.362094531465
 30
0.0
  0
ENDBLK
  5
1EA
330
1DF
100
AcDbEntity
  8
0
 62
     0
100
AcDbBlockEnd
  0
BLOCK
  5
200
330
1FF
100
AcDbEntity
  8
0
 62
     0
100
AcDbBlockBegin
  2
*D17
 70
     1
 10
0.0
 20
0.0
 30
0.0
  3
*D17
  1

  0
LINE
  5
201
330
1FF
100
AcDbEntity
  8
SUNPO
100
AcDbLine
 10
40.61181593714502
 20
1065.554940463934
 30
0.0
 11
22.05826703615128
 21
1084.108489364927
 31
0.0
  0
LINE
  5
202
330
1FF
100
AcDbEntity
  8
SUNPO
100
AcDbLine
 10
38.36321637297192
 20
1063.306340899761
 30
0.0
 11
19.80966747197817
 21
1081.859889800754
 31
0.0
  0
LINE
  5
203
330
1FF
100
AcDbEntity
  8
SUNPO
100
AcDbLine
 10
18.39545390960518
 20
1079.031462676008
 30
0.0
 11
16.27413356604552
 21
1076.910142332448
 31
0.0
  0
LINE
  5
204
330
1FF
100
AcDbEntity
  8
SUNPO
100
AcDbLine
 10
24.88669416089738
 20
1085.5227029273
 30
0.0
 11
41.95153781353224
 21
1102.587546579936
 31
0.0
  0
LINE
  5
205
330
1FF
100
AcDbEntity
  8
SUNPO
100
AcDbLine
 10
20.51677425316473
 20
1081.152783019567
 30
0.0
 11
22.76537381733783
 21
1083.401382583741
 31
0.0
  0
INSERT
  5
206
330
1FF
100
AcDbEntity
  8
SUNPO
100
AcDbBlockReference
  2
_Open30
 10
20.51677425316473
 20
1081.152783019567
 30
0.0
 41
3.0
 42
3.0
 43
3.0
 50
45.00000000000144
  0
INSERT
  5
207
330
1FF
100
AcDbEntity
  8
SUNPO
100
AcDbBlockReference
  2
_Open30
 10
22.76537381733783
 20
1083.401382583741
 30
0.0
 41
3.0
 42
3.0
 43
3.0
 50
225.0000000000015
  0
MTEXT
  5
208
330
1FF
100
AcDbEntity
  8
SUNPO
 62
     7
370
    25
100
AcDbMText
 10
32.0049024248417
 20
1097.590658659551
 30
0.0
 40
4.0
 41
0.0
 71
     5
 72
     1
  1
\A1;\U+03C63.18H7
  7
K1
 11
0.7071067811865297
 21
0.7071067811865655
 31
0.0
 73
     1
 44
1.0
1001
ACAD
1000
MTEXTBEGIN
1070
    73
1070
     1
1070
    44
1040
1.0
1070
    74
1070
     0
1000
MTEXTEND
  0
POINT
  5
209
330
1FF
100
AcDbEntity
  8
Defpoints
 62
     0
100
AcDbPoint
 10
41.31892271833163
 20
1064.847833682748
 30
0.0
  0
POINT
  5
20A
330
1FF
100
AcDbEntity
  8
Defpoints
 62
     0
100
AcDbPoint
 10
39.07032315415853
 20
1062.599234118575
 30
0.0
  0
POINT
  5
20B
330
1FF
100
AcDbEntity
  8
Defpoints
 62
     0
100
AcDbPoint
 10
20.51677425316473
 20
1081.152783019567
 30
0.0
  0
ENDBLK
  5
20C
330
1FF
100
AcDbEntity
  8
0
 62
     0
100
AcDbBlockEnd
  0
BLOCK
  5
335
330
334
100
AcDbEntity
  8
0
 62
     0
100
AcDbBlockBegin
  2
*D18
 70
     1
 10
0.0
 20
0.0
 30
0.0
  3
*D18
  1

  0
LINE
  5
336
330
334
100
AcDbEntity
  8
SUNPO
100
AcDbLine
 10
133.1890561205866
 20
1065.862104600223
 30
0.0
 11
133.1890561205866
 21
1118.845964019324
 31
0.0
  0
LINE
  5
337
330
334
100
AcDbEntity
  8
SUNPO
100
AcDbLine
 10
375.1890561205873
 20
1078.862104599986
 30
0.0
 11
375.1890561205873
 21
1118.845964019324
 31
0.0
  0
LINE
  5
338
330
334
100
AcDbEntity
  8
SUNPO
100
AcDbLine
 10
136.1890561205866
 20
1117.845964019324
 30
0.0
 11
372.1890561205873
 21
1117.845964019324
 31
0.0
  0
INSERT
  5
339
330
334
100
AcDbEntity
  8
SUNPO
100
AcDbBlockReference
  2
_Open30
 10
133.1890561205866
 20
1117.845964019324
 30
0.0
 41
3.0
 42
3.0
 43
3.0
 50
180.0
  0
INSERT
  5
33A
330
334
100
AcDbEntity
  8
SUNPO
100
AcDbBlockReference
  2
_Open30
 10
375.1890561205873
 20
1117.845964019324
 30
0.0
 41
3.0
 42
3.0
 43
3.0
  0
MTEXT
  5
33B
330
334
100
AcDbEntity
  8
SUNPO
 62
     7
100
AcDbMText
 10
254.189056120587
 20
1121.345964019324
 30
0.0
 40
4.0
 41
0.0
 71
     5
 72
     1
  1
\A1;242
  7
K1
 73
     1
 44
1.0
1001
ACAD
1000
MTEXTBEGIN
1070
    73
1070
     1
1070
    44
1040
1.0
1070
    74
1070
     0
1000
MTEXTEND
  0
POINT
  5
33C
330
334
100
AcDbEntity
  8
Defpoints
 62
     0
100
AcDbPoint
 10
133.1890561205866
 20
1064.862104600223
 30
0.0
  0
POINT
  5
33D
330
334
100
AcDbEntity
  8
Defpoints
 62
     0
100
AcDbPoint
 10
375.1890561205873
 20
1077.862104599986
 30
0.0
  0
POINT
  5
33E
330
334
100
AcDbEntity
  8
Defpoints
 62
     0
100
AcDbPoint
 10
375.1890561205873
 20
1117.845964019324
 30
0.0
  0
ENDBLK
  5
33F
330
334
100
AcDbEntity
  8
0
 62
     0
100
AcDbBlockEnd
  0
BLOCK
  5
342
330
341
100
AcDbEntity
  8
0
 62
     0
100
AcDbBlockBegin
  2
*D19
 70
     1
 10
0.0
 20
0.0
 30
0.0
  3
*D19
  1

  0
LINE
  5
343
330
341
100
AcDbEntity
  8
SUNPO
100
AcDbLine
 10
143.4390561205866
 20
1066.362104600223
 30
0.0
 11
119.8904363862313
 21
1066.362104600223
 31
0.0
  0
LINE
  5
344
330
341
100
AcDbEntity
  8
SUNPO
100
AcDbLine
 10
143.4390561205866
 20
1054.362104600223
 30
0.0
 11
119.8904363862313
 21
1054.362104600223
 31
0.0
  0
LINE
  5
345
330
341
100
AcDbEntity
  8
SUNPO
100
AcDbLine
 10
120.8904363862313
 20
1063.362104600223
 30
0.0
 11
120.8904363862313
 21
1057.362104600223
 31
0.0
  0
INSERT
  5
346
330
341
100
AcDbEntity
  8
SUNPO
100
AcDbBlockReference
  2
_Open30
 10
120.8904363862313
 20
1066.362104600223
 30
0.0
 41
3.0
 42
3.0
 43
3.0
 50
90.0
  0
INSERT
  5
347
330
341
100
AcDbEntity
  8
SUNPO
100
AcDbBlockReference
  2
_Open30
 10
120.8904363862313
 20
1054.362104600223
 30
0.0
 41
3.0
 42
3.0
 43
3.0
 50
270.0
  0
MTEXT
  5
348
330
341
100
AcDbEntity
  8
SUNPO
 62
     7
100
AcDbMText
 10
116.7237697195645
 20
1060.362104600223
 30
0.0
 40
4.0
 41
0.0
 71
     5
 72
     1
  1
\A1;%%C12g6
  7
K1
 11
0.0000000000000001
 21
1.0
 31
0.0
 73
     1
 44
1.0
1001
ACAD
1000
MTEXTBEGIN
1070
    73
1070
     1
1070
    44
1040
1.0
1070
    74
1070
     0
1000
MTEXTEND
  0
POINT
  5
349
330
341
100
AcDbEntity
  8
Defpoints
 62
     0
100
AcDbPoint
 10
144.4390561205866
 20
1066.362104600223
 30
0.0
  0
POINT
  5
34A
330
341
100
AcDbEntity
  8
Defpoints
 62
     0
100
AcDbPoint
 10
144.4390561205866
 20
1054.362104600223
 30
0.0
  0
POINT
  5
34B
330
341
100
AcDbEntity
  8
Defpoints
 62
     0
100
AcDbPoint
 10
120.8904363862313
 20
1054.362104600223
 30
0.0
  0
ENDBLK
  5
34C
330
341
100
AcDbEntity
  8
0
 62
     0
100
AcDbBlockEnd
  0
BLOCK
  5
34F
330
34E
100
AcDbEntity
  8
0
 62
     0
100
AcDbBlockBegin
  2
*D20
 70
     1
 10
0.0
 20
0.0
 30
0.0
  3
*D20
  1

  0
LINE
  5
350
330
34E
100
AcDbEntity
  8
SUNPO
100
AcDbLine
 10
133.1890561205866
 20
1065.862104600223
 30
0.0
 11
133.1890561205866
 21
1108.924819888658
 31
0.0
  0
LINE
  5
351
330
34E
100
AcDbEntity
  8
SUNPO
100
AcDbLine
 10
154.1890561205861
 20
1075.462104600223
 30
0.0
 11
154.1890561205861
 21
1108.924819888658
 31
0.0
  0
LINE
  5
352
330
34E
100
AcDbEntity
  8
SUNPO
100
AcDbLine
 10
136.1890561205866
 20
1107.924819888658
 30
0.0
 11
151.1890561205861
 21
1107.924819888658
 31
0.0
  0
INSERT
  5
353
330
34E
100
AcDbEntity
  8
SUNPO
100
AcDbBlockReference
  2
_Open30
 10
133.1890561205866
 20
1107.924819888658
 30
0.0
 41
3.0
 42
3.0
 43
3.0
 50
180.0
  0
INSERT
  5
354
330
34E
100
AcDbEntity
  8
SUNPO
100
AcDbBlockReference
  2
_Open30
 10
154.1890561205861
 20
1107.924819888658
 30
0.0
 41
3.0
 42
3.0
 43
3.0
  0
MTEXT
  5
355
330
34E
100
AcDbEntity
  8
SUNPO
 62
     7
370
    25
100
AcDbMText
 10
143.6890561205864
 20
1111.424819888658
 30
0.0
 40
4.0
 41
0.0
 71
     5
 72
     1
  1
\A1;21
  7
K1
 73
     1
 44
1.0
1001
ACAD
1000
MTEXTBEGIN
1070
    73
1070
     1
1070
    44
1040
1.0
1070
    74
1070
     0
1000
MTEXTEND
  0
POINT
  5
356
330
34E
100
AcDbEntity
  8
Defpoints
 62
     0
100
AcDbPoint
 10
133.1890561205866
 20
1064.862104600223
 30
0.0
  0
POINT
  5
357
330
34E
100
AcDbEntity
  8
Defpoints
 62
     0
100
AcDbPoint
 10
154.1890561205861
 20
1074.462104600223
 30
0.0
  0
POINT
  5
358
330
34E
100
AcDbEntity
  8
Defpoints
 62
     0
100
AcDbPoint
 10
154.1890561205861
 20
1107.924819888658
 30
0.0
  0
ENDBLK
  5
359
330
34E
100
AcDbEntity
  8
0
 62
     0
100
AcDbBlockEnd
  0
BLOCK
  5
35C
330
35B
100
AcDbEntity
  8
0
 62
     0
100
AcDbBlockBegin
  2
*D21
 70
     1
 10
0.0
 20
0.0
 30
0.0
  3
*D21
  1

  0
LINE
  5
35D
330
35B
100
AcDbEntity
  8
SUNPO
100
AcDbLine
 10
144.1890561205866
 20
1067.112104600223
 30
0.0
 11
144.1890561205866
 21
1098.724582627386
 31
0.0
  0
LINE
  5
35E
330
35B
100
AcDbEntity
  8
SUNPO
100
AcDbLine
 10
133.1890561205866
 20
1065.862104600223
 30
0.0
 11
133.1890561205866
 21
1098.724582627386
 31
0.0
  0
LINE
  5
35F
330
35B
100
AcDbEntity
  8
SUNPO
100
AcDbLine
 10
141.1890561205866
 20
1097.724582627386
 30
0.0
 11
136.1890561205866
 21
1097.724582627386
 31
0.0
  0
INSERT
  5
360
330
35B
100
AcDbEntity
  8
SUNPO
100
AcDbBlockReference
  2
_Open30
 10
144.1890561205866
 20
1097.724582627386
 30
0.0
 41
3.0
 42
3.0
 43
3.0
  0
INSERT
  5
361
330
35B
100
AcDbEntity
  8
SUNPO
100
AcDbBlockReference
  2
_Open30
 10
133.1890561205866
 20
1097.724582627386
 30
0.0
 41
3.0
 42
3.0
 43
3.0
 50
180.0
  0
MTEXT
  5
362
330
35B
100
AcDbEntity
  8
SUNPO
 62
     7
370
    25
100
AcDbMText
 10
138.6890561205866
 20
1101.224582627386
 30
0.0
 40
4.0
 41
0.0
 71
     5
 72
     1
  1
\A1;11
  7
K1
 73
     1
 44
1.0
1001
ACAD
1000
MTEXTBEGIN
1070
    73
1070
     1
1070
    44
1040
1.0
1070
    74
1070
     0
1000
MTEXTEND
  0
POINT
  5
363
330
35B
100
AcDbEntity
  8
Defpoints
 62
     0
100
AcDbPoint
 10
144.1890561205866
 20
1066.112104600223
 30
0.0
  0
POINT
  5
364
330
35B
100
AcDbEntity
  8
Defpoints
 62
     0
100
AcDbPoint
 10
133.1890561205866
 20
1064.862104600223
 30
0.0
  0
POINT
  5
365
330
35B
100
AcDbEntity
  8
Defpoints
 62
     0
100
AcDbPoint
 10
133.1890561205866
 20
1097.724582627386
 30
0.0
  0
ENDBLK
  5
366
330
35B
100
AcDbEntity
  8
0
 62
     0
100
AcDbBlockEnd
  0
BLOCK
  5
369
330
368
100
AcDbEntity
  8
0
 62
     0
100
AcDbBlockBegin
  2
*D22
 70
     1
 10
0.0
 20
0.0
 30
0.0
  3
*D22
  1

  0
LINE
  5
36A
330
368
100
AcDbEntity
  8
SUNPO
100
AcDbLine
 10
350.1890561205851
 20
1083.362104600223
 30
0.0
 11
350.1890561205851
 21
1108.924819888658
 31
0.0
  0
LINE
  5
36B
330
368
100
AcDbEntity
  8
SUNPO
100
AcDbLine
 10
375.1890561205873
 20
1078.862104599986
 30
0.0
 11
375.1890561205873
 21
1108.924819888658
 31
0.0
  0
LINE
  5
36C
330
368
100
AcDbEntity
  8
SUNPO
100
AcDbLine
 10
353.1890561205851
 20
1107.924819888658
 30
0.0
 11
372.1890561205873
 21
1107.924819888658
 31
0.0
  0
INSERT
  5
36D
330
368
100
AcDbEntity
  8
SUNPO
100
AcDbBlockReference
  2
_Open30
 10
350.1890561205851
 20
1107.924819888658
 30
0.0
 41
3.0
 42
3.0
 43
3.0
 50
180.0
  0
INSERT
  5
36E
330
368
100
AcDbEntity
  8
SUNPO
100
AcDbBlockReference
  2
_Open30
 10
375.1890561205873
 20
1107.924819888658
 30
0.0
 41
3.0
 42
3.0
 43
3.0
  0
MTEXT
  5
36F
330
368
100
AcDbEntity
  8
SUNPO
 62
     7
100
AcDbMText
 10
362.6890561205862
 20
1111.424819888658
 30
0.0
 40
4.0
 41
0.0
 71
     5
 72
     1
  1
\A1;25
  7
K1
 73
     1
 44
1.0
1001
ACAD
1000
MTEXTBEGIN
1070
    73
1070
     1
1070
    44
1040
1.0
1070
    74
1070
     0
1000
MTEXTEND
  0
POINT
  5
370
330
368
100
AcDbEntity
  8
Defpoints
 62
     0
100
AcDbPoint
 10
350.1890561205851
 20
1082.362104600223
 30
0.0
  0
POINT
  5
371
330
368
100
AcDbEntity
  8
Defpoints
 62
     0
100
AcDbPoint
 10
375.1890561205873
 20
1077.862104599986
 30
0.0
  0
POINT
  5
372
330
368
100
AcDbEntity
  8
Defpoints
 62
     0
100
AcDbPoint
 10
375.1890561205873
 20
1107.924819888658
 30
0.0
  0
ENDBLK
  5
373
330
368
100
AcDbEntity
  8
0
 62
     0
100
AcDbBlockEnd
  0
BLOCK
  5
3B6
330
3B5
100
AcDbEntity
  8
0
 62
     0
100
AcDbBlockBegin
  2
*D23
 70
     1
 10
0.0
 20
0.0
 30
0.0
  3
*D23
  1

  0
LINE
  5
3B7
330
3B5
100
AcDbEntity
  8
SUNPO
100
AcDbLine
 10
138.6890561205866
 20
1068.84971571871
 30
0.0
 11
138.6890561205866
 21
1089.31448293586
 31
0.0
  0
LINE
  5
3B8
330
3B5
100
AcDbEntity
  8
SUNPO
100
AcDbLine
 10
144.1890561205866
 20
1067.112104600223
 30
0.0
 11
144.1890561205866
 21
1089.31448293586
 31
0.0
  0
LINE
  5
3B9
330
3B5
100
AcDbEntity
  8
SUNPO
100
AcDbLine
 10
135.6890561205866
 20
1088.314482935861
 30
0.0
 11
132.6890561205866
 21
1088.314482935861
 31
0.0
  0
LINE
  5
3BA
330
3B5
100
AcDbEntity
  8
SUNPO
100
AcDbLine
 10
147.1890561205866
 20
1088.314482935861
 30
0.0
 11
150.1890561205866
 21
1088.314482935861
 31
0.0
  0
MTEXT
  5
3BB
330
3B5
100
AcDbEntity
  8
SUNPO
 62
     7
370
    25
100
AcDbMText
 10
149.1819018951479
 20
1091.833609779554
 30
0.0
 40
4.0
 41
0.0
 71
     5
 72
     1
  1
\A1;5.5
  7
K1
 73
     1
 44
1.0
1001
ACAD
1000
MTEXTBEGIN
1070
    73
1070
     1
1070
    44
1040
1.0
1070
    74
1070
     0
1000
MTEXTEND
  0
LINE
  5
3BC
330
3B5
100
AcDbEntity
  8
SUNPO
100
AcDbLine
 10
138.6890561205866
 20
1088.314482935861
 30
0.0
 11
144.1890561205866
 21
1088.314482935861
 31
0.0
  0
INSERT
  5
3BD
330
3B5
100
AcDbEntity
  8
SUNPO
100
AcDbBlockReference
  2
_Open30
 10
138.6890561205866
 20
1088.314482935861
 30
0.0
 41
3.0
 42
3.0
 43
3.0
  0
INSERT
  5
3BE
330
3B5
100
AcDbEntity
  8
SUNPO
100
AcDbBlockReference
  2
_Open30
 10
144.1890561205866
 20
1088.314482935861
 30
0.0
 41
3.0
 42
3.0
 43
3.0
 50
180.0
  0
POINT
  5
3BF
330
3B5
100
AcDbEntity
  8
Defpoints
 62
     0
100
AcDbPoint
 10
138.6890561205866
 20
1067.84971571871
 30
0.0
  0
POINT
  5
3C0
330
3B5
100
AcDbEntity
  8
Defpoints
 62
     0
100
AcDbPoint
 10
144.1890561205866
 20
1066.112104600223
 30
0.0
  0
POINT
  5
3C1
330
3B5
100
AcDbEntity
  8
Defpoints
 62
     0
100
AcDbPoint
 10
144.1890561205866
 20
1088.314482935861
 30
0.0
  0
ENDBLK
  5
3C2
330
3B5
100
AcDbEntity
  8
0
 62
     0
100
AcDbBlockEnd
  0
BLOCK
  5
3C5
330
3C4
100
AcDbEntity
  8
0
 62
     0
100
AcDbBlockBegin
  2
*D24
 70
     1
 10
0.0
 20
0.0
 30
0.0
  3
*D24
  1

  0
LINE
  5
3C6
330
3C4
100
AcDbEntity
  8
SUNPO
100
AcDbLine
 10
234.189056120587
 20
1082.862104600223
 30
0.0
 11
234.189056120587
 21
1098.605145594876
 31
0.0
  0
LINE
  5
3C7
330
3C4
100
AcDbEntity
  8
SUNPO
100
AcDbLine
 10
258.1890561205871
 20
1080.362104600219
 30
0.0
 11
258.1890561205871
 21
1098.605145594876
 31
0.0
  0
LINE
  5
3C8
330
3C4
100
AcDbEntity
  8
SUNPO
100
AcDbLine
 10
237.1890561205871
 20
1097.605145594876
 30
0.0
 11
255.189056120587
 21
1097.605145594876
 31
0.0
  0
INSERT
  5
3C9
330
3C4
100
AcDbEntity
  8
SUNPO
100
AcDbBlockReference
  2
_Open30
 10
234.189056120587
 20
1097.605145594876
 30
0.0
 41
3.0
 42
3.0
 43
3.0
 50
180.0
  0
INSERT
  5
3CA
330
3C4
100
AcDbEntity
  8
SUNPO
100
AcDbBlockReference
  2
_Open30
 10
258.1890561205871
 20
1097.605145594876
 30
0.0
 41
3.0
 42
3.0
 43
3.0
  0
MTEXT
  5
3CB
330
3C4
100
AcDbEntity
  8
SUNPO
 62
     7
370
    25
100
AcDbMText
 10
246.1890561205871
 20
1101.105145594876
 30
0.0
 40
4.0
 41
0.0
 71
     5
 72
     1
  1
\A1;24
  7
K1
 73
     1
 44
1.0
1001
ACAD
1000
MTEXTBEGIN
1070
    73
1070
     1
1070
    44
1040
1.0
1070
    74
1070
     0
1000
MTEXTEND
  0
POINT
  5
3CC
330
3C4
100
AcDbEntity
  8
Defpoints
 62
     0
100
AcDbPoint
 10
234.189056120587
 20
1081.862104600223
 30
0.0
  0
POINT
  5
3CD
330
3C4
100
AcDbEntity
  8
Defpoints
 62
     0
100
AcDbPoint
 10
258.1890561205871
 20
1079.362104600219
 30
0.0
  0
POINT
  5
3CE
330
3C4
100
AcDbEntity
  8
Defpoints
 62
     0
100
AcDbPoint
 10
258.1890561205871
 20
1097.605145594876
 30
0.0
  0
ENDBLK
  5
3CF
330
3C4
100
AcDbEntity
  8
0
 62
     0
100
AcDbBlockEnd
  0
BLOCK
  5
3D2
330
3D1
100
AcDbEntity
  8
0
 62
     0
100
AcDbBlockBegin
  2
*D25
 70
     1
 10
0.0
 20
0.0
 30
0.0
  3
*D25
  1

  0
LINE
  5
3D3
330
3D1
100
AcDbEntity
  8
SUNPO
100
AcDbLine
 10
258.1890561205871
 20
1080.362104600219
 30
0.0
 11
258.1890561205871
 21
1098.605145594876
 31
0.0
  0
LINE
  5
3D4
330
3D1
100
AcDbEntity
  8
SUNPO
100
AcDbLine
 10
278.189056120587
 20
1080.362104600219
 30
0.0
 11
278.189056120587
 21
1098.605145594876
 31
0.0
  0
LINE
  5
3D5
330
3D1
100
AcDbEntity
  8
SUNPO
100
AcDbLine
 10
261.189056120587
 20
1097.605145594876
 30
0.0
 11
275.1890561205871
 21
1097.605145594876
 31
0.0
  0
INSERT
  5
3D6
330
3D1
100
AcDbEntity
  8
SUNPO
100
AcDbBlockReference
  2
_Open30
 10
258.1890561205871
 20
1097.605145594876
 30
0.0
 41
3.0
 42
3.0
 43
3.0
 50
180.0
  0
INSERT
  5
3D7
330
3D1
100
AcDbEntity
  8
SUNPO
100
AcDbBlockReference
  2
_Open30
 10
278.189056120587
 20
1097.605145594876
 30
0.0
 41
3.0
 42
3.0
 43
3.0
  0
MTEXT
  5
3D8
330
3D1
100
AcDbEntity
  8
SUNPO
 62
     7
370
    25
100
AcDbMText
 10
268.1890561205871
 20
1101.105145594876
 30
0.0
 40
4.0
 41
0.0
 71
     5
 72
     1
  1
\A1;20
  7
K1
 73
     1
 44
1.0
1001
ACAD
1000
MTEXTBEGIN
1070
    73
1070
     1
1070
    44
1040
1.0
1070
    74
1070
     0
1000
MTEXTEND
  0
POINT
  5
3D9
330
3D1
100
AcDbEntity
  8
Defpoints
 62
     0
100
AcDbPoint
 10
258.1890561205871
 20
1079.362104600219
 30
0.0
  0
POINT
  5
3DA
330
3D1
100
AcDbEntity
  8
Defpoints
 62
     0
100
AcDbPoint
 10
278.189056120587
 20
1079.362104600219
 30
0.0
  0
POINT
  5
3DB
330
3D1
100
AcDbEntity
  8
Defpoints
 62
     0
100
AcDbPoint
 10
278.189056120587
 20
1097.605145594876
 30
0.0
  0
ENDBLK
  5
3DC
330
3D1
100
AcDbEntity
  8
0
 62
     0
100
AcDbBlockEnd
  0
BLOCK
  5
3DF
330
3DE
100
AcDbEntity
  8
0
 62
     0
100
AcDbBlockBegin
  2
*D26
 70
     1
 10
0.0
 20
0.0
 30
0.0
  3
*D26
  1

  0
LINE
  5
3E0
330
3DE
100
AcDbEntity
  8
SUNPO
100
AcDbLine
 10
278.189056120587
 20
1080.362104600219
 30
0.0
 11
278.189056120587
 21
1098.605145594876
 31
0.0
  0
LINE
  5
3E1
330
3DE
100
AcDbEntity
  8
SUNPO
100
AcDbLine
 10
298.1890561205871
 20
1080.362104600219
 30
0.0
 11
298.1890561205871
 21
1098.605145594876
 31
0.0
  0
LINE
  5
3E2
330
3DE
100
AcDbEntity
  8
SUNPO
100
AcDbLine
 10
281.1890561205871
 20
1097.605145594876
 30
0.0
 11
295.1890561205871
 21
1097.605145594876
 31
0.0
  0
INSERT
  5
3E3
330
3DE
100
AcDbEntity
  8
SUNPO
100
AcDbBlockReference
  2
_Open30
 10
278.189056120587
 20
1097.605145594876
 30
0.0
 41
3.0
 42
3.0
 43
3.0
 50
180.0
  0
INSERT
  5
3E4
330
3DE
100
AcDbEntity
  8
SUNPO
100
AcDbBlockReference
  2
_Open30
 10
298.1890561205871
 20
1097.605145594876
 30
0.0
 41
3.0
 42
3.0
 43
3.0
  0
MTEXT
  5
3E5
330
3DE
100
AcDbEntity
  8
SUNPO
 62
     7
370
    25
100
AcDbMText
 10
288.1890561205871
 20
1101.105145594876
 30
0.0
 40
4.0
 41
0.0
 71
     5
 72
     1
  1
\A1;20
  7
K1
 73
     1
 44
1.0
1001
ACAD
1000
MTEXTBEGIN
1070
    73
1070
     1
1070
    44
1040
1.0
1070
    74
1070
     0
1000
MTEXTEND
  0
POINT
  5
3E6
330
3DE
100
AcDbEntity
  8
Defpoints
 62
     0
100
AcDbPoint
 10
278.189056120587
 20
1079.362104600219
 30
0.0
  0
POINT
  5
3E7
330
3DE
100
AcDbEntity
  8
Defpoints
 62
     0
100
AcDbPoint
 10
298.1890561205871
 20
1079.362104600219
 30
0.0
  0
POINT
  5
3E8
330
3DE
100
AcDbEntity
  8
Defpoints
 62
     0
100
AcDbPoint
 10
298.1890561205871
 20
1097.605145594876
 30
0.0
  0
ENDBLK
  5
3E9
330
3DE
100
AcDbEntity
  8
0
 62
     0
100
AcDbBlockEnd
  0
BLOCK
  5
376
330
375
100
AcDbEntity
  8
0
 62
     0
100
AcDbBlockBegin
  2
*D27
 70
     1
 10
0.0
 20
0.0
 30
0.0
  3
*D27
  1

  0
LINE
  5
377
330
375
100
AcDbEntity
  8
SUNPO
100
AcDbLine
 10
174.2608528903103
 20
1077.862104600223
 30
0.0
 11
109.0194916481514
 21
1077.862104600223
 31
0.0
  0
LINE
  5
378
330
375
100
AcDbEntity
  8
SUNPO
100
AcDbLine
 10
174.2608528903103
 20
1042.862104600223
 30
0.0
 11
109.0194916481514
 21
1042.862104600223
 31
0.0
  0
LINE
  5
379
330
375
100
AcDbEntity
  8
SUNPO
100
AcDbLine
 10
110.0194916481514
 20
1074.862104600223
 30
0.0
 11
110.0194916481514
 21
1045.862104600223
 31
0.0
  0
INSERT
  5
37A
330
375
100
AcDbEntity
  8
SUNPO
100
AcDbBlockReference
  2
_Open30
 10
110.0194916481514
 20
1077.862104600223
 30
0.0
 41
3.0
 42
3.0
 43
3.0
 50
90.0
  0
INSERT
  5
37B
330
375
100
AcDbEntity
  8
SUNPO
100
AcDbBlockReference
  2
_Open30
 10
110.0194916481514
 20
1042.862104600223
 30
0.0
 41
3.0
 42
3.0
 43
3.0
 50
270.0
  0
MTEXT
  5
37C
330
375
100
AcDbEntity
  8
SUNPO
 62
     7
370
    25
100
AcDbMText
 10
106.5194916481512
 20
1060.362104600223
 30
0.0
 40
4.0
 41
0.0
 71
     5
 72
     1
  1
\A1;%%C35
  7
K1
 11
0.0000000000000001
 21
1.0
 31
0.0
 73
     1
 44
1.0
1001
ACAD
1000
MTEXTBEGIN
1070
    73
1070
     1
1070
    44
1040
1.0
1070
    74
1070
     0
1000
MTEXTEND
  0
POINT
  5
37D
330
375
100
AcDbEntity
  8
Defpoints
 62
     0
100
AcDbPoint
 10
175.2608528903103
 20
1077.862104600223
 30
0.0
  0
POINT
  5
37E
330
375
100
AcDbEntity
  8
Defpoints
 62
     0
100
AcDbPoint
 10
175.2608528903103
 20
1042.862104600223
 30
0.0
  0
POINT
  5
37F
330
375
100
AcDbEntity
  8
Defpoints
 62
     0
100
AcDbPoint
 10
110.0194916481514
 20
1042.862104600223
 30
0.0
  0
ENDBLK
  5
380
330
375
100
AcDbEntity
  8
0
 62
     0
100
AcDbBlockEnd
  0
BLOCK
  5
383
330
382
100
AcDbEntity
  8
0
 62
     0
100
AcDbBlockBegin
  2
*D28
 70
     1
 10
0.0
 20
0.0
 30
0.0
  3
*D28
  1

  0
LINE
  5
384
330
382
100
AcDbEntity
  8
SUNPO
100
AcDbLine
 10
218.3621095051676
 20
1082.262104600222
 30
0.0
 11
216.9325470062467
 21
1082.262104600222
 31
0.0
  0
LINE
  5
385
330
382
100
AcDbEntity
  8
SUNPO
100
AcDbLine
 10
217.9325470062468
 20
1079.262104600223
 30
0.0
 11
217.9325470062468
 21
1041.462104600223
 31
0.0
  0
LINE
  5
386
330
382
100
AcDbEntity
  8
SUNPO
100
AcDbLine
 10
217.9325470062468
 20
1038.462104600223
 30
0.0
 11
217.9325470062468
 21
1019.662104600223
 31
0.0
  0
INSERT
  5
387
330
382
100
AcDbEntity
  8
SUNPO
100
AcDbBlockReference
  2
_Open30
 10
217.9325470062468
 20
1082.262104600222
 30
0.0
 41
3.0
 42
3.0
 43
3.0
 50
90.0
  0
INSERT
  5
388
330
382
100
AcDbEntity
  8
SUNPO
100
AcDbBlockReference
  2
_Open30
 10
217.9325470062468
 20
1038.462104600223
 30
0.0
 41
3.0
 42
3.0
 43
3.0
 50
270.0
  0
MTEXT
  5
389
330
382
100
AcDbEntity
  8
SUNPO
 62
     7
370
    25
100
AcDbMText
 10
214.4325470062466
 20
1027.562104600223
 30
0.0
 40
4.0
 41
0.0
 71
     5
 72
     1
  1
\A1;%%C43.8
  7
K1
 11
0.0000000000000001
 21
1.0
 31
0.0
 73
     1
 44
1.0
1001
ACAD
1000
MTEXTBEGIN
1070
    73
1070
     1
1070
    44
1040
1.0
1070
    74
1070
     0
1000
MTEXTEND
  0
POINT
  5
38A
330
382
100
AcDbEntity
  8
Defpoints
 62
     0
100
AcDbPoint
 10
219.3621095051676
 20
1082.262104600222
 30
0.0
  0
POINT
  5
38B
330
382
100
AcDbEntity
  8
Defpoints
 62
     0
100
AcDbPoint
 10
217.9325470062468
 20
1038.462104600223
 30
0.0
  0
POINT
  5
38C
330
382
100
AcDbEntity
  8
Defpoints
 62
     0
100
AcDbPoint
 10
217.9325470062468
 20
1038.462104600223
 30
0.0
  0
ENDBLK
  5
38D
330
382
100
AcDbEntity
  8
0
 62
     0
100
AcDbBlockEnd
  0
BLOCK
  5
390
330
38F
100
AcDbEntity
  8
0
 62
     0
100
AcDbBlockBegin
  2
*D29
 70
     1
 10
0.0
 20
0.0
 30
0.0
  3
*D29
  1

  0
LINE
  5
391
330
38F
100
AcDbEntity
  8
SUNPO
100
AcDbLine
 10
350.1890561205873
 20
1083.362104599985
 30
0.0
 11
350.1890561205873
 21
1108.924819888658
 31
0.0
  0
LINE
  5
392
330
38F
100
AcDbEntity
  8
SUNPO
100
AcDbLine
 10
234.189056120587
 20
1082.862104600223
 30
0.0
 11
234.189056120587
 21
1108.924819888658
 31
0.0
  0
LINE
  5
393
330
38F
100
AcDbEntity
  8
SUNPO
100
AcDbLine
 10
347.1890561205873
 20
1107.924819888658
 30
0.0
 11
237.1890561205871
 21
1107.924819888658
 31
0.0
  0
INSERT
  5
394
330
38F
100
AcDbEntity
  8
SUNPO
100
AcDbBlockReference
  2
_Open30
 10
350.1890561205873
 20
1107.924819888658
 30
0.0
 41
3.0
 42
3.0
 43
3.0
  0
INSERT
  5
395
330
38F
100
AcDbEntity
  8
SUNPO
100
AcDbBlockReference
  2
_Open30
 10
234.189056120587
 20
1107.924819888658
 30
0.0
 41
3.0
 42
3.0
 43
3.0
 50
180.0
  0
MTEXT
  5
396
330
38F
100
AcDbEntity
  8
SUNPO
 62
     7
370
    25
100
AcDbMText
 10
292.1890561205872
 20
1111.424819888658
 30
0.0
 40
4.0
 41
0.0
 71
     5
 72
     1
  1
\A1;116
  7
K1
 73
     1
 44
1.0
1001
ACAD
1000
MTEXTBEGIN
1070
    73
1070
     1
1070
    44
1040
1.0
1070
    74
1070
     0
1000
MTEXTEND
  0
POINT
  5
397
330
38F
100
AcDbEntity
  8
Defpoints
 62
     0
100
AcDbPoint
 10
350.1890561205873
 20
1082.362104599985
 30
0.0
  0
POINT
  5
398
330
38F
100
AcDbEntity
  8
Defpoints
 62
     0
100
AcDbPoint
 10
234.189056120587
 20
1081.862104600223
 30
0.0
  0
POINT
  5
399
330
38F
100
AcDbEntity
  8
Defpoints
 62
     0
100
AcDbPoint
 10
234.189056120587
 20
1107.924819888658
 30
0.0
  0
ENDBLK
  5
39A
330
38F
100
AcDbEntity
  8
0
 62
     0
100
AcDbBlockEnd
  0
BLOCK
  5
39D
330
39C
100
AcDbEntity
  8
0
 62
     0
100
AcDbBlockBegin
  2
*D30
 70
     1
 10
0.0
 20
0.0
 30
0.0
  3
*D30
  1

  0
LINE
  5
39E
330
39C
100
AcDbEntity
  8
SUNPO
100
AcDbLine
 10
234.189056120587
 20
1082.862104600223
 30
0.0
 11
234.189056120587
 21
1108.924819888658
 31
0.0
  0
LINE
  5
39F
330
39C
100
AcDbEntity
  8
SUNPO
100
AcDbLine
 10
154.1890561205861
 20
1075.462104600223
 30
0.0
 11
154.1890561205861
 21
1108.924819888658
 31
0.0
  0
LINE
  5
3A0
330
39C
100
AcDbEntity
  8
SUNPO
100
AcDbLine
 10
231.1890561205871
 20
1107.924819888658
 30
0.0
 11
157.1890561205861
 21
1107.924819888658
 31
0.0
  0
INSERT
  5
3A1
330
39C
100
AcDbEntity
  8
SUNPO
100
AcDbBlockReference
  2
_Open30
 10
234.189056120587
 20
1107.924819888658
 30
0.0
 41
3.0
 42
3.0
 43
3.0
  0
INSERT
  5
3A2
330
39C
100
AcDbEntity
  8
SUNPO
100
AcDbBlockReference
  2
_Open30
 10
154.1890561205861
 20
1107.924819888658
 30
0.0
 41
3.0
 42
3.0
 43
3.0
 50
180.0
  0
MTEXT
  5
3A3
330
39C
100
AcDbEntity
  8
SUNPO
 62
     7
370
    25
100
AcDbMText
 10
194.1890561205866
 20
1111.424819888658
 30
0.0
 40
4.0
 41
0.0
 71
     5
 72
     1
  1
\A1;80
  7
K1
 73
     1
 44
1.0
1001
ACAD
1000
MTEXTBEGIN
1070
    73
1070
     1
1070
    44
1040
1.0
1070
    74
1070
     0
1000
MTEXTEND
  0
POINT
  5
3A4
330
39C
100
AcDbEntity
  8
Defpoints
 62
     0
100
AcDbPoint
 10
234.189056120587
 20
1081.862104600223
 30
0.0
  0
POINT
  5
3A5
330
39C
100
AcDbEntity
  8
Defpoints
 62
     0
100
AcDbPoint
 10
154.1890561205861
 20
1074.462104600223
 30
0.0
  0
POINT
  5
3A6
330
39C
100
AcDbEntity
  8
Defpoints
 62
     0
100
AcDbPoint
 10
154.1890561205861
 20
1107.924819888658
 30
0.0
  0
ENDBLK
  5
3A7
330
39C
100
AcDbEntity
  8
0
 62
     0
100
AcDbBlockEnd
  0
BLOCK
  5
3AA
330
3A9
100
AcDbEntity
  8
0
 62
     0
100
AcDbBlockBegin
  2
*D31
 70
     1
 10
0.0
 20
0.0
 30
0.0
  3
*D31
  1

  0
LINE
  5
3AB
330
3A9
100
AcDbEntity
  8
SUNPO
100
AcDbLine
 10
271.3748598697041
 20
903.9090447945591
 30
0.0
 11
183.0739923662186
 21
903.9090447945593
 31
0.0
  0
LINE
  5
3AC
330
3A9
100
AcDbEntity
  8
SUNPO
100
AcDbLine
 10
184.0739923662186
 20
1057.362104600223
 30
0.0
 11
184.0739923662186
 21
906.9090447945592
 31
0.0
  0
INSERT
  5
3AD
330
3A9
100
AcDbEntity
  8
SUNPO
100
AcDbBlockReference
  2
_Open30
 10
184.0739923662186
 20
1060.362104600223
 30
0.0
 41
3.0
 42
3.0
 43
3.0
 50
90.0
  0
INSERT
  5
3AE
330
3A9
100
AcDbEntity
  8
SUNPO
100
AcDbBlockReference
  2
_Open30
 10
184.0739923662186
 20
903.9090447945593
 30
0.0
 41
3.0
 42
3.0
 43
3.0
 50
270.0
  0
MTEXT
  5
3AF
330
3A9
100
AcDbEntity
  8
SUNPO
 62
     7
370
    25
100
AcDbMText
 10
180.5739923662184
 20
982.135574697391
 30
0.0
 40
4.0
 41
0.0
 71
     5
 72
     1
  1
\A1;(156.5)
  7
K1
 11
0.0000000000000001
 21
1.0
 31
0.0
 73
     1
 44
1.0
1001
ACAD
1000
MTEXTBEGIN
1070
    73
1070
     1
1070
    44
1040
1.0
1070
    74
1070
     0
1000
MTEXTEND
  0
POINT
  5
3B0
330
3A9
100
AcDbEntity
  8
Defpoints
 62
     0
100
AcDbPoint
 10
149.4241023849317
 20
1060.362104600223
 30
0.0
  0
POINT
  5
3B1
330
3A9
100
AcDbEntity
  8
Defpoints
 62
     0
100
AcDbPoint
 10
272.3748598697041
 20
903.9090447945591
 30
0.0
  0
POINT
  5
3B2
330
3A9
100
AcDbEntity
  8
Defpoints
 62
     0
100
AcDbPoint
 10
184.0739923662186
 20
903.9090447945593
 30
0.0
  0
ENDBLK
  5
3B3
330
3A9
100
AcDbEntity
  8
0
 62
     0
100
AcDbBlockEnd
  0
BLOCK
  5
3EC
330
3EB
100
AcDbEntity
  8
0
 62
     0
100
AcDbBlockBegin
  2
*D32
 70
     1
 10
0.0
 20
0.0
 30
0.0
  3
*D32
  1

  0
LINE
  5
3ED
330
3EB
100
AcDbEntity
  8
SUNPO
100
AcDbLine
 10
339.1462407213467
 20
1097.398299625438
 30
0.0
 11
307.3529073880133
 21
1097.398299625438
 31
0.0
  0
LINE
  5
3EE
330
3EB
100
AcDbEntity
  8
SUNPO
100
AcDbLine
 10
307.3529073880133
 20
1097.398299625438
 30
0.0
 11
299.9076696541008
 21
1077.057460552905
 31
0.0
  0
MTEXT
  5
3EF
330
3EB
100
AcDbEntity
  8
SUNPO
 62
     7
370
    25
100
AcDbMText
 10
323.9995740546801
 20
1100.898299625438
 30
0.0
 40
4.0
 41
0.0
 71
     5
 72
     1
  1
\A1;3-M4タップ深4
  7
K1
 73
     1
 44
1.0
1001
ACAD
1000
MTEXTBEGIN
1070
    73
1070
     1
1070
    44
1040
1.0
1070
    74
1070
     0
1000
MTEXTEND
  0
INSERT
  5
3F0
330
3EB
100
AcDbEntity
  8
SUNPO
100
AcDbBlockReference
  2
_Open30
 10
298.8765015339924
 20
1074.240246981293
 30
0.0
 41
3.0
 42
3.0
 43
3.0
 50
249.8961554735385
  0
POINT
  5
3F1
330
3EB
100
AcDbEntity
  8
Defpoints
 62
     0
100
AcDbPoint
 10
298.8765015339924
 20
1074.240246981293
 30
0.0
  0
POINT
  5
3F2
330
3EB
100
AcDbEntity
  8
Defpoints
 62
     0
100
AcDbPoint
 10
297.5016107071811
 20
1070.483962219144
 30
0.0
  0
ENDBLK
  5
3F3
330
3EB
100
AcDbEntity
  8
0
 62
     0
100
AcDbBlockEnd
  0
BLOCK
  5
490
330
48F
100
AcDbEntity
  8
0
 62
     0
100
AcDbBlockBegin
  2
_ACMFILLED
 70
     0
 10
0.0
 20
0.0
 30
0.0
  3
_ACMFILLED
  1

  0
TRACE
  5
491
330
48F
100
AcDbEntity
  8
K-1
  6
ByBlock
 62
     0
100
AcDbTrace
 10
-1.0
 20
-0.166666666
 30
0.0
 11
-1.0
 21
0.166666666
 31
0.0
 12
0.0
 22
0.0
 32
0.0
 13
0.0
 23
0.0
 33
0.0
  0
ENDBLK
  5
492
330
48F
100
AcDbEntity
  8
0
 62
     0
100
AcDbBlockEnd
  0
BLOCK
  5
46A
330
469
100
AcDbEntity
  8
0
 62
     0
100
AcDbBlockBegin
  2
_ACMFILLEDHALF
 70
     0
 10
0.0
 20
0.0
 30
0.0
  3
_ACMFILLEDHALF
  1

  0
TRACE
  5
46B
330
469
100
AcDbEntity
  8
K-1
  6
ByBlock
 62
     0
100
AcDbTrace
 10
-0.8
 20
0.0
 30
0.0
 11
-1.0
 21
0.166666666
 31
0.0
 12
0.0
 22
0.0
 32
0.0
 13
0.0
 23
0.0
 33
0.0
  0
LINE
  5
46C
330
469
100
AcDbEntity
  8
K-1
  6
ByBlock
 62
     0
100
AcDbLine
 10
-1.0
 20
0.0
 30
0.0
 11
-0.8
 21
0.0
 31
0.0
  0
ENDBLK
  5
46D
330
469
100
AcDbEntity
  8
0
 62
     0
100
AcDbBlockEnd
  0
BLOCK
  5
45C
330
45B
100
AcDbEntity
  8
0
 62
     0
100
AcDbBlockBegin
  2
_ACMOPEN15
 70
     0
 10
0.0
 20
0.0
 30
0.0
  3
_ACMOPEN15
  1

  0
LINE
  5
45D
330
45B
100
AcDbEntity
  8
K-1
  6
ByBlock
 62
     0
100
AcDbLine
 10
-1.0
 20
0.0
 30
0.0
 11
0.0
 21
0.0
 31
0.0
  0
LINE
  5
45E
330
45B
100
AcDbEntity
  8
K-1
  6
ByBlock
 62
     0
100
AcDbLine
 10
-1.0
 20
-0.131652497
 30
0.0
 11
0.0
 21
0.0
 31
0.0
  0
LINE
  5
45F
330
45B
100
AcDbEntity
  8
K-1
  6
ByBlock
 62
     0
100
AcDbLine
 10
0.0
 20
0.0
 30
0.0
 11
-1.0
 21
0.131652497
 31
0.0
  0
ENDBLK
  5
460
330
45B
100
AcDbEntity
  8
0
 62
     0
100
AcDbBlockEnd
  0
BLOCK
  5
474
330
473
100
AcDbEntity
  8
0
 62
     0
100
AcDbBlockBegin
  2
_ACMFILLED15
 70
     0
 10
0.0
 20
0.0
 30
0.0
  3
_ACMFILLED15
  1

  0
TRACE
  5
475
330
473
100
AcDbEntity
  8
K-1
  6
ByBlock
 62
     0
100
AcDbTrace
 10
-1.0
 20
-0.131652497
 30
0.0
 11
-1.0
 21
0.131652497
 31
0.0
 12
0.0
 22
0.0
 32
0.0
 13
0.0
 23
0.0
 33
0.0
  0
ENDBLK
  5
476
330
473
100
AcDbEntity
  8
0
 62
     0
100
AcDbBlockEnd
  0
ENDSEC
  0
SECTION
  2
ENTITIES
  0
INSERT
  5
65
330
2
100
AcDbEntity
  8
K-1
  6
ByBlock
 62
     0
100
AcDbBlockReference
 66
     1
  2
表題覧_ver.1
 10
408.0000019058307
 20
856.4999953851691
 30
0.0
  0
ATTRIB
  5
77
330
65
100
AcDbEntity
  8
0
100
AcDbText
 10
334.8960099831215
 20
884.0499953851669
 30
0.0
 40
4.0
  1
P37-1016
 41
0.8907786885245936
  7
K1
 72
     5
 11
359.0460099831216
 21
884.0499953851669
 31
0.0
100
AcDbAttribute
  2
JOB_NO
 70
     0
  0
ATTRIB
  5
78
330
65
100
AcDbEntity
  8
A4WAKU
100
AcDbText
 10
326.1869701674664
 20
874.2999953851668
 30
0.0
 40
5.5
  1
HFT-035M80-P1 外形図
 41
0.75
  7
K1
 72
     4
 11
360.0578035007998
 21
877.0499953851668
 31
0.0
100
AcDbAttribute
  2
TITLE
 70
     0
  0
ATTRIB
  5
79
330
65
100
AcDbEntity
  8
A4WAKU
100
AcDbText
 10
339.9282439049398
 20
859.9999953851668
 30
0.0
 40
6.0
  1
DU-H062-00
 41
1.076860465116283
  7
K1
 72
     5
 11
401.66824390494
 21
859.9999953851668
 31
0.0
100
AcDbAttribute
  2
DRAWING_NO.
 70
     0
  0
ATTRIB
  5
7A
330
65
100
AcDbEntity
  8
A4WAKU
100
AcDbText
 10
297.0578035007993
 20
873.5499953851668
 30
0.0
 40
3.0
  1
1/1
 41
1.98187500000003
  7
K1
 72
     5
 11
307.6278035007995
 21
873.5499953851668
 31
0.0
100
AcDbAttribute
  2
SCALE
 70
     0
  0
ATTRIB
  5
7B
330
65
100
AcDbEntity
  8
A4WAKU
100
AcDbText
 10
264.6603603789666
 20
875.1599953851668
 30
0.0
 40
3.5
  1
（DDK）
  7
K1
 72
     2
 11
280.7603603789667
 21
875.1599953851668
 31
0.0
100
AcDbAttribute
  2
MATERIAL
 70
     0
  0
ATTRIB
  5
7C
330
65
100
AcDbEntity
  8
0
100
AcDbText
 10
372.7444463502737
 20
883.999995385167
 30
0.0
 40
4.0
  1
1
 41
0.8
  7
K1
 72
     4
 11
373.1000019058293
 21
885.9999953851669
 31
0.0
100
AcDbAttribute
  2
AMT
 70
     0
  0
ATTRIB
  5
7D
330
65
100
AcDbEntity
  8
A4WAKU
100
AcDbText
 10
280.7603603789667
 20
866.3299953851669
 30
0.0
 40
3.5
  1

  7
K1
 72
     2
 11
280.7603603789667
 21
866.3299953851669
 31
0.0
100
AcDbAttribute
  2
REMARK
 70
     0
  0
ATTRIB
  5
7E
330
65
100
AcDbEntity
  8
0
100
AcDbText
 10
381.7960099831216
 20
884.0499953851669
 30
0.0
 40
4.0
  1
2011.06.27
 41
0.7875000000000029
  7
K1
 72
     5
 11
405.9460099831217
 21
884.0499953851669
 31
0.0
100
AcDbAttribute
  2
DATE
 70
     0
  0
ATTRIB
  5
7F
330
65
100
AcDbEntity
  8
A4WAKU
100
AcDbText
 10
268.7632619186414
 20
857.4999953851669
 30
0.0
 40
3.5
  1
1.40
  7
K1
 72
     2
 11
277.7077063630859
 21
857.4999953851669
 31
0.0
100
AcDbAttribute
  2
WEIGHT
 70
     0
  0
SEQEND
  5
80
330
65
100
AcDbEntity
  8
K-1
  6
ByBlock
 62
     0
  0
INSERT
  5
81
330
2
100
AcDbEntity
  8
0
100
AcDbBlockReference
 66
     1
  2
流用枠1-A
 10
333.1000019058297
 20
891.9999953851691
 30
0.0
  0
ATTRIB
  5
92
330
81
100
AcDbEntity
  8
0
100
AcDbText
 10
334.5700019058295
 20
893.049995385169
 30
0.0
 40
4.0
  1

 41
1.646590909090915
  7
K1
 72
     5
 11
358.7200019058296
 21
893.049995385169
 31
0.0
100
AcDbAttribute
  2
AAAA
 70
     0
  0
ATTRIB
  5
93
330
81
100
AcDbEntity
  8
0
100
AcDbText
 10
373.1000019058297
 20
894.9999953851691
 30
0.0
 40
4.0
  1

 41
0.8
  7
K1
 72
     4
 11
373.1000019058297
 21
894.9999953851691
 31
0.0
100
AcDbAttribute
  2
1
 70
     0
  0
ATTRIB
  5
94
330
81
100
AcDbEntity
  8
0
100
AcDbText
 10
381.4700019058296
 20
893.049995385169
 30
0.0
 40
4.0
  1

 41
1.646590909090915
  7
K1
 72
     5
 11
405.6200019058296
 21
893.049995385169
 31
0.0
100
AcDbAttribute
  2
BBBB
 70
     0
  0
SEQEND
  5
95
330
81
100
AcDbEntity
  8
0
  6
ByBlock
  0
INSERT
  5
96
330
2
100
AcDbEntity
  8
0
100
AcDbBlockReference
 66
     1
  2
流用枠1-A
 10
333.1000019058297
 20
900.9999953851691
 30
0.0
  0
ATTRIB
  5
97
330
96
100
AcDbEntity
  8
0
100
AcDbText
 10
334.5700019058295
 20
902.049995385169
 30
0.0
 40
4.0
  1

 41
1.646590909090915
  7
K1
 72
     5
 11
358.7200019058296
 21
902.049995385169
 31
0.0
100
AcDbAttribute
  2
AAAA
 70
     0
  0
ATTRIB
  5
98
330
96
100
AcDbEntity
  8
0
100
AcDbText
 10
373.1000019058297
 20
903.999995385169
 30
0.0
 40
4.0
  1

 41
0.8
  7
K1
 72
     4
 11
373.1000019058297
 21
903.999995385169
 31
0.0
100
AcDbAttribute
  2
1
 70
     0
  0
ATTRIB
  5
99
330
96
100
AcDbEntity
  8
0
100
AcDbText
 10
381.4700019058296
 20
902.049995385169
 30
0.0
 40
4.0
  1

 41
1.646590909090915
  7
K1
 72
     5
 11
405.6200019058296
 21
902.049995385169
 31
0.0
100
AcDbAttribute
  2
BBBB
 70
     0
  0
SEQEND
  5
9A
330
96
100
AcDbEntity
  8
0
  6
ByBlock
  0
INSERT
  5
9B
330
2
100
AcDbEntity
  8
K-1
  6
ByBlock
 62
     0
100
AcDbBlockReference
  2
WAKUA3_ver.1
 10
0.0000019058306862
 20
849.9999953851668
 30
0.0
  0
CIRCLE
  5
120
330
2
100
AcDbEntity
  8
K-1
  6
ByBlock
 62
     0
100
AcDbCircle
 10
43.55070805707874
 20
1060.362104600223
 30
0.0
 40
6.0
  0
LINE
  5
121
102
{ACAD_REACTORS
330
1B7
102
}
330
2
100
AcDbEntity
  8
K-1
  6
ByBlock
 62
     0
100
AcDbLine
 10
37.90066299896466
 20
1061.429573963381
 30
0.0
 11
42.48323869392038
 21
1066.012149658337
 31
0.0
  0
CIRCLE
  5
122
330
2
100
AcDbEntity
  8
K-1
  6
ByBlock
 62
     6
100
AcDbCircle
 10
43.55070805707874
 20
1060.362104600223
 30
0.0
 40
4.5
  0
CIRCLE
  5
123
330
2
100
AcDbEntity
  8
K-1
  6
ByBlock
 62
     0
100
AcDbCircle
 10
43.55070805707874
 20
1060.362104600223
 30
0.0
 40
5.75
  0
CIRCLE
  5
124
330
2
100
AcDbEntity
  8
K-1
  6
ByBlock
 62
     0
370
    25
100
AcDbCircle
 10
43.53937134016405
 20
1070.356761134624
 30
0.0
 40
1.55
  0
CIRCLE
  5
125
330
2
100
AcDbEntity
  8
K-1
  6
CENTER
 62
     2
370
    25
100
AcDbCircle
 10
43.54536387747384
 20
1060.362104600223
 30
0.0
 40
10.00000142801268
  0
CIRCLE
  5
127
330
2
100
AcDbEntity
  8
K-1
  6
ByBlock
 62
     0
370
    25
100
AcDbCircle
 10
33.54314953179573
 20
1060.35298151498
 30
0.0
 40
1.55
  0
CIRCLE
  5
128
330
2
100
AcDbEntity
  8
K-1
  6
ByBlock
 62
     0
370
    25
100
AcDbCircle
 10
43.54692915144005
 20
1050.356759706612
 30
0.0
 40
1.55
  0
CIRCLE
  5
129
330
2
100
AcDbEntity
  8
K-1
  6
ByBlock
 62
     0
370
    25
100
AcDbCircle
 10
53.54315095980837
 20
1060.360539326256
 30
0.0
 40
1.55
  0
LINE
  5
12A
330
2
100
AcDbEntity
  8
K-1
  6
ByBlock
 62
     0
100
AcDbLine
 10
42.48323869392061
 20
1054.712059542109
 30
0.0
 11
37.90066299896489
 21
1059.294635237064
 31
0.0
  0
LINE
  5
12B
102
{ACAD_REACTORS
330
1B7
102
}
330
2
100
AcDbEntity
  8
K-1
  6
ByBlock
 62
     0
100
AcDbLine
 10
49.20075311519281
 20
1059.294635237064
 30
0.0
 11
44.61817742023709
 21
1054.712059542109
 31
0.0
  0
LINE
  5
12C
330
2
100
AcDbEntity
  8
K-1
  6
ByBlock
 62
     0
100
AcDbLine
 10
44.61817742023685
 20
1066.012149658337
 30
0.0
 11
49.20075311519281
 21
1061.429573963381
 31
0.0
  0
CIRCLE
  5
12D
330
2
100
AcDbEntity
  8
K-1
  6
ByBlock
 62
     0
100
AcDbCircle
 10
43.54536387747384
 20
1060.362104600223
 30
0.0
 40
6.5
  0
LINE
  5
12E
102
{ACAD_REACTORS
330
199
330
1A8
102
}
330
2
100
AcDbEntity
  8
K-1
  6
CENTERS
 62
     2
370
    25
100
AcDbLine
 10
19.42070805707863
 20
1060.362104600223
 30
0.0
 11
67.68070805707862
 21
1060.362104600223
 31
0.0
  0
LINE
  5
130
330
2
100
AcDbEntity
  8
K-1
  6
CENTERS
 62
     2
370
    25
100
AcDbLine
 10
43.55070805707874
 20
1088.707879216222
 30
0.0
 11
43.55070805707874
 21
898.2150193336501
 31
0.0
  0
LINE
  5
131
330
2
100
AcDbEntity
  8
K-1
  6
ByBlock
 62
     0
100
AcDbLine
 10
26.70463857954212
 20
1046.362104600228
 30
0.0
 11
24.05711936745695
 21
1046.362104600228
 31
0.0
  0
LINE
  5
132
330
2
100
AcDbEntity
  8
K-1
  6
ByBlock
 62
     0
100
AcDbLine
 10
21.5453638774735
 20
1050.78270861002
 30
0.0
 11
21.54536387747373
 21
1069.941500590426
 31
0.0
  0
LINE
  5
133
330
2
100
AcDbEntity
  8
K-1
  6
ByBlock
 62
     0
100
AcDbLine
 10
33.95904501045322
 20
1082.362104600223
 30
0.0
 11
53.14237110370425
 21
1082.362104600223
 31
0.0
  0
LINE
  5
134
330
2
100
AcDbEntity
  8
K-1
  6
ByBlock
 62
     0
100
AcDbLine
 10
65.54536387747385
 20
1069.966016060787
 30
0.0
 11
65.54536387747418
 21
1050.758193139659
 31
0.0
  0
LINE
  5
135
330
2
100
AcDbEntity
  8
K-1
  6
ByBlock
 62
     0
100
AcDbLine
 10
63.04429674670052
 20
1046.362104600228
 30
0.0
 11
60.38608917540557
 21
1046.362104600228
 31
0.0
  0
CIRCLE
  5
136
330
2
100
AcDbEntity
  8
K-1
  6
ByBlock
 62
     0
370
    25
100
AcDbCircle
 10
43.54536387747384
 20
1060.362104600223
 30
0.0
 40
21.90000065206037
  0
LINE
  5
137
330
2
100
AcDbEntity
  8
K-1
  6
ByBlock
 62
     0
370
    25
100
AcDbLine
 10
26.60768427750088
 20
1045.862104600228
 30
0.0
 11
24.05070805707851
 21
1045.862104600228
 31
0.0
  0
LINE
  5
138
330
2
100
AcDbEntity
  8
K-1
  6
ByBlock
 62
     0
370
    25
100
AcDbLine
 10
24.05070805707862
 20
1045.862104600229
 30
0.0
 11
24.05070805707862
 21
1035.362104600223
 31
0.0
  0
LINE
  5
139
330
2
100
AcDbEntity
  8
K-1
  6
ByBlock
 62
     0
370
    25
100
AcDbLine
 10
24.05070805707862
 20
1035.362104600223
 30
0.0
 11
28.55070805707863
 21
1027.362104600221
 31
0.0
  0
LINE
  5
13A
330
2
100
AcDbEntity
  8
K-1
  6
ByBlock
 62
     0
370
    25
100
AcDbLine
 10
28.55070805707863
 20
1027.362104600221
 30
0.0
 11
28.55070805707863
 21
1008.362104601473
 31
0.0
  0
LINE
  5
13B
330
2
100
AcDbEntity
  8
K-1
  6
ByBlock
 62
     0
100
AcDbLine
 10
23.55070805707862
 20
926.3621046002221
 30
0.0
 11
23.55070805707862
 21
910.3621046002235
 31
0.0
  0
LINE
  5
13C
330
2
100
AcDbEntity
  8
K-1
  6
ByBlock
 62
     0
100
AcDbLine
 10
63.55070805707953
 20
910.3621046002233
 30
0.0
 11
63.55070805707953
 21
926.3621046002247
 31
0.0
  0
ARC
  5
13D
330
2
100
AcDbEntity
  8
K-1
  6
ByBlock
 62
     0
100
AcDbCircle
 10
61.55070805707862
 20
910.3621046002235
 30
0.0
 40
2.0
100
AcDbArc
 50
300.596703689191
 51
359.9999999999968
  0
LINE
  5
13E
330
2
100
AcDbEntity
  8
K-1
  6
ByBlock
 62
     0
370
    25
100
AcDbLine
 10
60.4830434774475
 20
1045.862104600228
 30
0.0
 11
63.05070805707964
 21
1045.862104600229
 31
0.0
  0
LINE
  5
13F
330
2
100
AcDbEntity
  8
K-1
  6
ByBlock
 62
     0
370
    25
100
AcDbLine
 10
63.05070805707953
 20
1045.862104600229
 30
0.0
 11
63.05070805707953
 21
1035.362104600223
 31
0.0
  0
LINE
  5
140
330
2
100
AcDbEntity
  8
K-1
  6
ByBlock
 62
     0
370
    25
100
AcDbLine
 10
63.05070805707953
 20
1035.362104600223
 30
0.0
 11
58.55070805707953
 21
1027.362104600221
 31
0.0
  0
LINE
  5
141
330
2
100
AcDbEntity
  8
K-1
  6
ByBlock
 62
     0
370
    25
100
AcDbLine
 10
58.55070805707953
 20
1027.362104600221
 30
0.0
 11
58.55070805707953
 21
1008.362104601473
 31
0.0
  0
LINE
  5
142
330
2
100
AcDbEntity
  8
K-1
  6
ByBlock
100
AcDbLine
 10
63.55070805707953
 20
926.3621046002219
 30
0.0
 11
59.55070805708044
 21
934.9519139314516
 31
0.0
  0
ARC
  5
143
330
2
100
AcDbEntity
  8
K-1
  6
ByBlock
100
AcDbCircle
 10
43.54536387747418
 20
1060.367448779828
 30
0.0
 40
22.3
100
AcDbArc
 50
220.5765844080397
 51
319.4234155919836
  0
LINE
  5
144
330
2
100
AcDbEntity
  8
K-1
  6
ByBlock
100
AcDbLine
 10
59.55070805708044
 20
934.9519139314516
 30
0.0
 11
58.55070805711045
 21
1008.362104600222
 31
0.0
  0
LINE
  5
145
330
2
100
AcDbEntity
  8
K-1
  6
ByBlock
100
AcDbLine
 10
23.55070805707953
 20
926.3621046002219
 30
0.0
 11
27.55070805707954
 21
934.951913931453
 31
0.0
  0
LINE
  5
146
330
2
100
AcDbEntity
  8
K-1
  6
ByBlock
100
AcDbLine
 10
27.55070805707954
 20
934.951913931453
 30
0.0
 11
28.55070805704861
 21
1008.362104600222
 31
0.0
  0
ARC
  5
147
330
2
100
AcDbEntity
  8
K-1
  6
ByBlock
 62
     0
100
AcDbCircle
 10
40.55070805707771
 20
1003.36255088583
 30
0.0
 40
10.0
100
AcDbArc
 50
180.0
 51
269.9914787089145
  0
LINE
  5
148
330
2
100
AcDbEntity
  8
K-1
  6
ByBlock
 62
     0
100
AcDbLine
 10
40.54922081121993
 20
993.3625509964249
 30
0.0
 11
46.54922081122083
 21
993.3616586489007
 31
0.0
  0
ARC
  5
149
330
2
100
AcDbEntity
  8
K-1
  6
ByBlock
 62
     0
100
AcDbCircle
 10
46.55070805707862
 20
1003.361658538305
 30
0.0
 40
10.0
100
AcDbArc
 50
269.9914787089145
 51
0.0
  0
LINE
  5
14A
330
2
100
AcDbEntity
  8
K-1
  6
ByBlock
100
AcDbLine
 10
32.55070805707589
 20
1020.562104601471
 30
0.0
 11
54.55070805707953
 21
1020.562104601472
 31
0.0
1001
GENIUS_GENREC_14
1002
{
1000
PYDIR
1011
35.55070805707862
1021
996.1621046014728
1031
0.0
1002
}
1002
{
1000
PXDIR
1011
51.55070805707862
1021
1020.562104601473
1031
0.0
1002
}
1002
{
1000
PORI
1011
35.55070805707862
1021
1020.562104601473
1031
0.0
1002
}
1002
{
1000
PINS
1011
35.55070805707862
1021
1020.562104601473
1031
0.0
1002
}
1002
{
1000
PINS2
1011
51.55070805707862
1021
996.1621046014728
1031
0.0
1002
}
1002
{
1000
C
1070
     1
1002
}
1001
GENIUS_GENODEF_13
1002
{
1000
HIER
1070
     0
1002
}
1002
{
1000
MANEDIT
1070
     0
1002
}
1002
{
1000
NOSEL
1070
     0
1002
}
1002
{
1000
BEHIND
1070
     0
1002
}
1002
{
1000
OTHER
1070
     0
1002
}
1002
{
1000
REACTOR
1002
}
1001
GENIUS_GENOBJ-N-REC_13
1002
{
1000
OWNER
1000
GEN
1002
}
  0
LINE
  5
14E
330
2
100
AcDbEntity
  8
K-1
  6
ByBlock
100
AcDbLine
 10
51.55070805707953
 20
1020.562104601473
 30
0.0
 11
51.55070805707862
 21
1001.162104601473
 31
0.0
1001
GENIUS_GENREC_14
1002
{
1000
PYDIR
1011
35.55070805707862
1021
996.1621046014728
1031
0.0
1002
}
1002
{
1000
PXDIR
1011
51.55070805707862
1021
1020.562104601473
1031
0.0
1002
}
1002
{
1000
PORI
1011
35.55070805707862
1021
1020.562104601473
1031
0.0
1002
}
1002
{
1000
PINS
1011
35.55070805707862
1021
1020.562104601473
1031
0.0
1002
}
1002
{
1000
PINS2
1011
51.55070805707862
1021
996.1621046014728
1031
0.0
1002
}
1002
{
1000
C
1070
     1
1002
}
1001
GENIUS_GENODEF_13
1002
{
1000
HIER
1070
     0
1002
}
1002
{
1000
MANEDIT
1070
     0
1002
}
1002
{
1000
NOSEL
1070
     0
1002
}
1002
{
1000
BEHIND
1070
     0
1002
}
1002
{
1000
OTHER
1070
     0
1002
}
1002
{
1000
REACTOR
1002
}
1001
GENIUS_GENOBJ-N-REC_13
1002
{
1000
OWNER
1000
GEN
1002
}
  0
ARC
  5
14F
330
2
100
AcDbEntity
  8
K-1
  6
ByBlock
100
AcDbCircle
 10
46.55070805707862
 20
1001.162104601473
 30
0.0
 40
5.0
100
AcDbArc
 50
270.0
 51
0.0
1001
GENIUS_GENREC_14
1002
{
1000
PYDIR
1011
35.55070805707862
1021
996.1621046014728
1031
0.0
1002
}
1002
{
1000
PXDIR
1011
51.55070805707862
1021
1020.562104601473
1031
0.0
1002
}
1002
{
1000
PORI
1011
35.55070805707862
1021
1020.562104601473
1031
0.0
1002
}
1002
{
1000
PINS
1011
35.55070805707862
1021
1020.562104601473
1031
0.0
1002
}
1002
{
1000
PINS2
1011
51.55070805707862
1021
996.1621046014728
1031
0.0
1002
}
1002
{
1000
C
1070
     1
1002
}
1001
GENIUS_GENODEF_13
1002
{
1000
HIER
1070
     0
1002
}
1002
{
1000
MANEDIT
1070
     0
1002
}
1002
{
1000
NOSEL
1070
     0
1002
}
1002
{
1000
BEHIND
1070
     0
1002
}
1002
{
1000
OTHER
1070
     0
1002
}
1002
{
1000
REACTOR
1002
}
1001
GENIUS_GENOBJ-N-REC_13
1002
{
1000
OWNER
1000
GEN
1002
}
  0
LINE
  5
150
330
2
100
AcDbEntity
  8
K-1
  6
ByBlock
100
AcDbLine
 10
46.55070805707862
 20
996.1621046014728
 30
0.0
 11
40.55070805707862
 21
996.1621046014728
 31
0.0
1001
GENIUS_GENREC_14
1002
{
1000
PYDIR
1011
35.55070805707862
1021
996.1621046014728
1031
0.0
1002
}
1002
{
1000
PXDIR
1011
51.55070805707862
1021
1020.562104601473
1031
0.0
1002
}
1002
{
1000
PORI
1011
35.55070805707862
1021
1020.562104601473
1031
0.0
1002
}
1002
{
1000
PINS
1011
35.55070805707862
1021
1020.562104601473
1031
0.0
1002
}
1002
{
1000
PINS2
1011
51.55070805707862
1021
996.1621046014728
1031
0.0
1002
}
1002
{
1000
C
1070
     1
1002
}
1001
GENIUS_GENODEF_13
1002
{
1000
HIER
1070
     0
1002
}
1002
{
1000
MANEDIT
1070
     0
1002
}
1002
{
1000
NOSEL
1070
     0
1002
}
1002
{
1000
BEHIND
1070
     0
1002
}
1002
{
1000
OTHER
1070
     0
1002
}
1002
{
1000
REACTOR
1002
}
1001
GENIUS_GENOBJ-N-REC_13
1002
{
1000
OWNER
1000
GEN
1002
}
  0
ARC
  5
151
330
2
100
AcDbEntity
  8
K-1
  6
ByBlock
100
AcDbCircle
 10
40.55070805707862
 20
1001.162104601473
 30
0.0
 40
5.0
100
AcDbArc
 50
179.9999999999967
 51
270.0
1001
GENIUS_GENREC_14
1002
{
1000
PYDIR
1011
35.55070805707862
1021
996.1621046014728
1031
0.0
1002
}
1002
{
1000
PXDIR
1011
51.55070805707862
1021
1020.562104601473
1031
0.0
1002
}
1002
{
1000
PORI
1011
35.55070805707862
1021
1020.562104601473
1031
0.0
1002
}
1002
{
1000
PINS
1011
35.55070805707862
1021
1020.562104601473
1031
0.0
1002
}
1002
{
1000
PINS2
1011
51.55070805707862
1021
996.1621046014728
1031
0.0
1002
}
1002
{
1000
C
1070
     1
1002
}
1001
GENIUS_GENODEF_13
1002
{
1000
HIER
1070
     0
1002
}
1002
{
1000
MANEDIT
1070
     0
1002
}
1002
{
1000
NOSEL
1070
     0
1002
}
1002
{
1000
BEHIND
1070
     0
1002
}
1002
{
1000
OTHER
1070
     0
1002
}
1002
{
1000
REACTOR
1002
}
1001
GENIUS_GENOBJ-N-REC_13
1002
{
1000
OWNER
1000
GEN
1002
}
  0
LINE
  5
152
330
2
100
AcDbEntity
  8
K-1
  6
ByBlock
100
AcDbLine
 10
35.55070805707862
 20
1001.162104601473
 30
0.0
 11
35.55070805707953
 21
1020.562104601473
 31
0.0
1001
GENIUS_GENREC_14
1002
{
1000
PYDIR
1011
35.55070805707862
1021
996.1621046014728
1031
0.0
1002
}
1002
{
1000
PXDIR
1011
51.55070805707862
1021
1020.562104601473
1031
0.0
1002
}
1002
{
1000
PORI
1011
35.55070805707862
1021
1020.562104601473
1031
0.0
1002
}
1002
{
1000
PINS
1011
35.55070805707862
1021
1020.562104601473
1031
0.0
1002
}
1002
{
1000
PINS2
1011
51.55070805707862
1021
996.1621046014728
1031
0.0
1002
}
1002
{
1000
C
1070
     1
1002
}
1001
GENIUS_GENODEF_13
1002
{
1000
HIER
1070
     0
1002
}
1002
{
1000
MANEDIT
1070
     0
1002
}
1002
{
1000
NOSEL
1070
     0
1002
}
1002
{
1000
BEHIND
1070
     0
1002
}
1002
{
1000
OTHER
1070
     0
1002
}
1002
{
1000
REACTOR
1002
}
1001
GENIUS_GENOBJ-N-REC_13
1002
{
1000
OWNER
1000
GEN
1002
}
  0
ARC
  5
153
330
2
100
AcDbEntity
  8
K-1
  6
ByBlock
 62
     6
100
AcDbCircle
 10
40.55070805707771
 20
1000.72559584572
 30
0.0
 40
10.0
100
AcDbArc
 50
180.0
 51
269.9914787089145
  0
LINE
  5
154
330
2
100
AcDbEntity
  8
K-1
  6
ByBlock
 62
     6
100
AcDbLine
 10
40.54922081121993
 20
990.7255959563149
 30
0.0
 11
46.54922081122083
 21
990.7247036087905
 31
0.0
  0
ARC
  5
155
330
2
100
AcDbEntity
  8
K-1
  6
ByBlock
 62
     6
100
AcDbCircle
 10
46.55070805707862
 20
1000.724703498195
 30
0.0
 40
10.0
100
AcDbArc
 50
269.9914787089145
 51
0.0
  0
CIRCLE
  5
156
330
2
100
AcDbEntity
  8
K-1
  6
HIDDEN
 62
     3
100
AcDbCircle
 10
43.55070805707862
 20
1008.362104601473
 30
0.0
 40
3.0
  0
LINE
  5
158
330
2
100
AcDbEntity
  8
K-1
  6
HIDDEN
 62
     3
100
AcDbLine
 10
51.55070805707953
 20
1020.562104601473
 30
0.0
 11
51.55070805707862
 21
1021.862104601473
 31
0.0
  0
LINE
  5
159
330
2
100
AcDbEntity
  8
K-1
  6
HIDDEN
 62
     3
100
AcDbLine
 10
35.55070805707953
 20
1020.562104601473
 30
0.0
 11
35.55070805708135
 21
1021.862104601473
 31
0.0
  0
LINE
  5
15A
330
2
100
AcDbEntity
  8
K-1
  6
HIDDEN
 62
     3
100
AcDbLine
 10
35.55070805708135
 20
1021.862104601473
 30
0.0
 11
51.55070805707862
 21
1021.862104601473
 31
0.0
  0
LINE
  5
15B
330
2
100
AcDbEntity
  8
K-1
  6
HIDDEN
 62
     3
100
AcDbLine
 10
39.05070805707771
 20
996.3924085943885
 30
0.0
 11
39.05070805707863
 21
994.8621046014764
 31
0.0
  0
LINE
  5
15C
330
2
100
AcDbEntity
  8
K-1
  6
HIDDEN
 62
     3
100
AcDbLine
 10
39.05070805707863
 20
994.8621046014764
 30
0.0
 11
48.0507080570768
 21
994.8621046014764
 31
0.0
  0
LINE
  5
15D
330
2
100
AcDbEntity
  8
K-1
  6
HIDDEN
 62
     3
100
AcDbLine
 10
48.0507080570768
 20
994.8621046014764
 30
0.0
 11
48.05070805708135
 21
996.3924085943892
 31
0.0
  0
LINE
  5
15E
102
{ACAD_REACTORS
330
1A8
102
}
330
2
100
AcDbEntity
  8
K-1
  6
CENTERS
 62
     2
100
AcDbLine
 10
36.55070805707862
 20
1008.362104601474
 30
0.0
 11
50.55070805707862
 21
1008.362104601474
 31
0.0
  0
LINE
  5
15F
330
2
100
AcDbEntity
  8
K-1
  6
ByBlock
100
AcDbLine
 10
54.55070805707953
 20
1033.362104600213
 30
0.0
 11
54.55070805707953
 21
1020.562104601473
 31
0.0
  0
LINE
  5
160
330
2
100
AcDbEntity
  8
K-1
  6
ByBlock
100
AcDbLine
 10
54.55070805707953
 20
1033.362104600213
 30
0.0
 11
61.38710354523652
 21
1033.362104600213
 31
0.0
  0
LINE
  5
161
330
2
100
AcDbEntity
  8
K-1
  6
ByBlock
100
AcDbLine
 10
32.55070805707589
 20
1033.362104600213
 30
0.0
 11
32.55070805707589
 21
1020.562104601471
 31
0.0
  0
LINE
  5
162
330
2
100
AcDbEntity
  8
K-1
  6
ByBlock
100
AcDbLine
 10
32.55070805707589
 20
1033.362104600213
 30
0.0
 11
25.7143125689189
 21
1033.362104600213
 31
0.0
  0
LINE
  5
163
330
2
100
AcDbEntity
  8
K-1
  6
CENTER
 62
     2
370
    25
100
AcDbLine
 10
20.85923803642243
 20
911.7257140055853
 30
0.0
 11
66.24217807773482
 21
911.7257140055853
 31
0.0
  0
LINE
  5
164
330
2
100
AcDbEntity
  8
K-1
  6
ByBlock
 62
     0
370
    25
100
AcDbLine
 10
46.55070805707771
 20
903.8993621832526
 30
0.0
 11
54.00363180755983
 21
903.8993621832524
 31
0.0
  0
ARC
  5
165
330
2
100
AcDbEntity
  8
K-1
  6
ByBlock
 62
     0
370
    25
100
AcDbCircle
 10
54.00363180755983
 20
905.8993621832525
 30
0.0
 40
2.0
100
AcDbArc
 50
270.0
 51
285.8749148743888
  0
LINE
  5
166
330
2
100
AcDbEntity
  8
K-1
  6
ByBlock
 62
     0
370
    25
100
AcDbLine
 10
40.55070805707771
 20
903.8993621832526
 30
0.0
 11
40.55070805707771
 21
921.6996803177707
 31
0.0
  0
LINE
  5
167
330
2
100
AcDbEntity
  8
K-1
  6
ByBlock
 62
     0
370
    25
100
AcDbLine
 10
40.55070805707771
 20
921.6996803177707
 30
0.0
 11
46.55070805707771
 21
921.6996803177707
 31
0.0
  0
LINE
  5
168
330
2
100
AcDbEntity
  8
K-1
  6
ByBlock
 62
     0
370
    25
100
AcDbLine
 10
46.55070805707771
 20
921.6996803177707
 30
0.0
 11
46.55070805707771
 21
903.8993621832526
 31
0.0
  0
LINE
  5
169
330
2
100
AcDbEntity
  8
K-1
  6
ByBlock
 62
     0
370
    25
100
AcDbLine
 10
46.55070805707771
 20
904.5321676108896
 30
0.0
 11
40.55070805707771
 21
904.5321676108896
 31
0.0
  0
LINE
  5
16A
330
2
100
AcDbEntity
  8
K-1
  6
ByBlock
 62
     0
370
    25
100
AcDbLine
 10
55.67338070415451
 20
904.5632217597082
 30
0.0
 11
62.56869184737468
 21
908.6405619772559
 31
0.0
  0
LINE
  5
16B
330
2
100
AcDbEntity
  8
K-1
  6
ByBlock
 62
     0
370
    25
100
AcDbLine
 10
54.55070805707771
 20
903.9756398599394
 30
0.0
 11
54.55070805707771
 21
921.7388537230547
 31
0.0
  0
LINE
  5
16C
330
2
100
AcDbEntity
  8
K-1
  6
ByBlock
 62
     0
370
    25
100
AcDbLine
 10
54.55070805707771
 20
921.7388537230547
 30
0.0
 11
57.93942587380195
 21
921.7388537230547
 31
0.0
  0
ARC
  5
16D
330
2
100
AcDbEntity
  8
K-1
  6
ByBlock
 62
     0
370
    25
100
AcDbCircle
 10
57.93942587380195
 20
919.7388537230548
 30
0.0
 40
2.0
100
AcDbArc
 50
0.0
 51
90.0
  0
LINE
  5
16E
330
2
100
AcDbEntity
  8
K-1
  6
ByBlock
 62
     0
370
    25
100
AcDbLine
 10
59.93942587380195
 20
919.7388537230548
 30
0.0
 11
59.93942587380195
 21
908.7971067435844
 31
0.0
  0
LINE
  5
16F
330
2
100
AcDbEntity
  8
K-1
  6
ByBlock
 62
     0
370
    25
100
AcDbLine
 10
55.67338070415451
 20
904.5632217597082
 30
0.0
 11
54.55070805707771
 21
904.5632217597082
 31
0.0
  0
ARC
  5
170
330
2
100
AcDbEntity
  8
K-1
  6
ByBlock
 62
     0
370
    25
100
AcDbCircle
 10
56.93942587380195
 20
908.7971067435844
 30
0.0
 40
3.0
100
AcDbArc
 50
300.5967036891982
 51
0.0
  0
ARC
  5
171
330
2
100
AcDbEntity
  8
K-1
  6
ByBlock
 62
     0
100
AcDbCircle
 10
25.54923901715199
 20
910.3634013388862
 30
0.0
 40
1.999999999999999
100
AcDbArc
 50
179.9958725210732
 51
239.3991688318643
  0
LINE
  5
172
330
2
100
AcDbEntity
  8
K-1
  6
ByBlock
 62
     0
370
    25
100
AcDbLine
 10
40.54877341456619
 20
903.8995783672282
 30
0.0
 11
33.09584968342267
 21
903.9001152616728
 31
0.0
  0
ARC
  5
173
330
2
100
AcDbEntity
  8
K-1
  6
ByBlock
 62
     0
370
    25
100
AcDbCircle
 10
33.09599375961705
 20
905.9001152564833
 30
0.0
 40
1.999999999999999
100
AcDbArc
 50
254.1209576465995
 51
269.9958725210374
  0
LINE
  5
174
330
2
100
AcDbEntity
  8
K-1
  6
ByBlock
 62
     0
370
    25
100
AcDbLine
 10
31.42614861434038
 20
904.5640951219391
 30
0.0
 11
24.5311312128423
 21
908.6419320540008
 31
0.0
  0
LINE
  5
175
330
2
100
AcDbEntity
  8
K-1
  6
ByBlock
 62
     0
370
    25
100
AcDbLine
 10
32.5487789302232
 20
903.9764323484938
 30
0.0
 11
32.5500585583485
 21
921.7396461655182
 31
0.0
  0
LINE
  5
176
330
2
100
AcDbEntity
  8
K-1
  6
ByBlock
 62
     0
370
    25
100
AcDbLine
 10
32.5500585583485
 20
921.7396461655182
 30
0.0
 11
29.16134075041635
 21
921.7398902823013
 31
0.0
  0
ARC
  5
177
330
2
100
AcDbEntity
  8
K-1
  6
ByBlock
 62
     0
370
    25
100
AcDbCircle
 10
29.16119667422197
 20
919.7398902874907
 30
0.0
 40
1.999999999999999
100
AcDbArc
 50
89.99587252103742
 51
179.9958725210699
  0
LINE
  5
178
330
2
100
AcDbEntity
  8
K-1
  6
ByBlock
 62
     0
370
    25
100
AcDbLine
 10
27.16119667941155
 20
919.740034363685
 30
0.0
 11
27.1604084567806
 21
908.7982874126057
 31
0.0
  0
LINE
  5
179
330
2
100
AcDbEntity
  8
K-1
  6
ByBlock
 62
     0
370
    25
100
AcDbLine
 10
31.42614861434038
 20
904.5640951219391
 30
0.0
 11
32.54882125850497
 21
904.564014246738
 31
0.0
  0
ARC
  5
17A
330
2
100
AcDbEntity
  8
K-1
  6
ByBlock
 62
     0
370
    25
100
AcDbCircle
 10
30.16040844899624
 20
908.7980712983144
 30
0.0
 40
2.999999999999999
100
AcDbArc
 50
179.9958725210699
 51
239.3991688318627
  0
LINE
  5
17B
330
2
100
AcDbEntity
  8
K-1
  6
HIDDEN
 62
     3
100
AcDbLine
 10
35.55070805707771
 20
915.2257140055862
 30
0.0
 11
35.55070805707771
 21
908.2257140055844
 31
0.0
  0
LINE
  5
17C
330
2
100
AcDbEntity
  8
K-1
  6
HIDDEN
 62
     3
100
AcDbLine
 10
54.55070805707771
 20
915.2257140055844
 30
0.0
 11
46.55070805707771
 21
915.2257140055853
 31
0.0
  0
LINE
  5
17D
330
2
100
AcDbEntity
  8
K-1
  6
HIDDEN
 62
     3
100
AcDbLine
 10
54.55070805707771
 20
908.2257140055844
 30
0.0
 11
46.5507080570768
 21
908.2257140055871
 31
0.0
  0
LINE
  5
17E
330
2
100
AcDbEntity
  8
K-1
  6
HIDDEN
 62
     3
100
AcDbLine
 10
35.55070805707771
 20
915.2257140055862
 30
0.0
 11
40.55070805707771
 21
915.2257140055853
 31
0.0
  0
LINE
  5
17F
330
2
100
AcDbEntity
  8
K-1
  6
HIDDEN
 62
     3
100
AcDbLine
 10
35.55070805707771
 20
908.2257140055844
 30
0.0
 11
40.55070805707953
 21
908.2257140055871
 31
0.0
  0
LINE
  5
180
330
2
100
AcDbEntity
  8
K-1
  6
HIDDEN
 62
     3
100
AcDbLine
 10
32.55070805707863
 20
913.9757140053633
 30
0.0
 11
35.55070805707771
 21
913.9757140053633
 31
0.0
  0
LINE
  5
181
330
2
100
AcDbEntity
  8
K-1
  6
HIDDEN
 62
     3
100
AcDbLine
 10
35.55070805707771
 20
909.4757140053634
 30
0.0
 11
32.55070805707863
 21
909.4757140053634
 31
0.0
  0
ELLIPSE
  5
182
330
2
100
AcDbEntity
  8
K-1
  6
ByBlock
 62
     6
370
    25
100
AcDbEllipse
 10
43.5537099332522
 20
934.9519139314523
 30
0.0
 11
-15.99699812382823
 21
0.0
 31
0.0
210
0.0
220
0.0
230
1.0
 40
0.2062459062715432
 41
0.0
 42
3.141592653589793
  0
LINE
  5
183
330
2
100
AcDbEntity
  8
K-1
  6
ByBlock
 62
     6
370
    25
100
AcDbLine
 10
29.16134075041725
 20
921.7398902823013
 30
0.0
 11
23.55070805707953
 21
926.3621046002219
 31
0.0
  0
LINE
  5
184
330
2
100
AcDbEntity
  8
K-1
  6
ByBlock
 62
     6
370
    25
100
AcDbLine
 10
57.93942587380195
 20
921.7388537230547
 30
0.0
 11
63.55070805707953
 21
926.3621046002247
 31
0.0
  0
DIMENSION
  5
185
330
2
100
AcDbEntity
  8
SUNPO
370
    25
100
AcDbDimension
  2
*D12
 10
65.54536387747361
 20
1117.81049589712
 30
0.0
 11
43.54536387747367
 21
1121.31049589712
 31
0.0
 71
     5
 42
43.99999999999988
  3
AM_JIS$0
100
AcDbAlignedDimension
 13
21.54536387747373
 23
1069.941500590426
 33
0.0
 14
65.54536387747361
 24
1069.966016060788
 34
0.0
100
AcDbRotatedDimension
  0
DIMENSION
  5
197
102
{ACAD_XDICTIONARY
360
198
102
}
102
{ACAD_REACTORS
330
199
102
}
330
2
100
AcDbEntity
  8
SUNPO
370
    25
100
AcDbDimension
  2
*D13
 10
86.33486002481118
 20
1082.362104600223
 30
0.0
 11
82.83486002481101
 21
1071.362104600223
 31
0.0
 71
     5
 42
21.99999999999977
  3
AM_JIS$0
100
AcDbAlignedDimension
 13
67.68070805707862
 23
1060.362104600223
 33
0.0
 14
53.14237110370436
 24
1082.362104600223
 34
0.0
 50
90.0
100
AcDbRotatedDimension
  0
DIMENSION
  5
1A6
102
{ACAD_XDICTIONARY
360
1A7
102
}
102
{ACAD_REACTORS
330
1A8
102
}
330
2
100
AcDbEntity
  8
SUNPO
370
    25
100
AcDbDimension
  2
*D14
 10
86.33486002481118
 20
1008.362104601474
 30
0.0
 11
82.83486002481101
 21
1034.362104600848
 31
0.0
 71
     5
 42
51.99999999874944
  3
AM_JIS$0
100
AcDbAlignedDimension
 13
67.68070805707862
 23
1060.362104600223
 33
0.0
 14
50.55070805707862
 24
1008.362104601474
 34
0.0
 50
90.0
100
AcDbRotatedDimension
  0
DIMENSION
  5
1B5
102
{ACAD_XDICTIONARY
360
1B6
102
}
102
{ACAD_REACTORS
330
1B7
102
}
330
2
100
AcDbEntity
  8
SUNPO
370
    25
100
AcDbDimension
  2
*D15
 10
84.04557586155016
 20
1094.139457983422
 30
0.0
 11
93.37309997960199
 21
1089.761681333676
 31
0.0
 70
     1
 71
     5
 42
9.500000000000341
  3
AM_JIS$0
100
AcDbAlignedDimension
 13
42.48323869392038
 23
1066.012149658337
 33
0.0
 14
49.20075311519292
 24
1059.294635237064
 34
0.0
1001
ACAD_DSTYLE_DIMINSPECT
1070
   396
1000
100%
1070
   395
1000

1070
   394
1070
    33
1070
   393
1070
     0
1001
ACAD
1000
DSTYLE
1002
{
1070
     3
1000
□<>
1002
}
  0
ARC
  5
1C6
330
2
100
AcDbEntity
  8
K-1
  6
ByBlock
 62
     0
370
    25
100
AcDbCircle
 10
43.55070805707874
 20
1060.362104600223
 30
0.0
 40
24.0
100
AcDbArc
 50
23.58836738429509
 51
66.44353569089929
  0
ARC
  5
1C7
330
2
100
AcDbEntity
  8
K-1
  6
ByBlock
 62
     0
370
    25
100
AcDbCircle
 10
43.55070805707874
 20
1060.362104600223
 30
0.0
 40
24.0
100
AcDbArc
 50
113.5564643091007
 51
156.4754795629414
  0
ARC
  5
1C8
330
2
100
AcDbEntity
  8
K-1
  6
ByBlock
 62
     0
370
    25
100
AcDbCircle
 10
43.55070805707874
 20
1060.362104600223
 30
0.0
 40
24.0
100
AcDbArc
 50
203.5245204370586
 51
215.6853347126338
  0
ARC
  5
1C9
330
2
100
AcDbEntity
  8
K-1
  6
ByBlock
 62
     0
370
    25
100
AcDbCircle
 10
43.55070805707874
 20
1060.362104600223
 30
0.0
 40
24.0
100
AcDbArc
 50
324.3146652873662
 51
336.4116326157104
  0
LINE
  5
1CA
330
2
100
AcDbEntity
  8
K-1
  6
HIDDEN
 62
     3
100
AcDbLine
 10
65.55070805540982
 20
1066.362104600222
 30
0.0
 11
62.55070805701279
 21
1066.362104600222
 31
0.0
  0
LINE
  5
1CB
330
2
100
AcDbEntity
  8
K-1
  6
CENTER
 62
     2
100
AcDbLine
 10
67.42030714318662
 20
1072.362104600222
 30
0.0
 11
53.16628745130856
 21
1072.362104600222
 31
0.0
  0
LINE
  5
1CC
330
2
100
AcDbEntity
  8
K-1
  6
HIDDEN
 62
     3
100
AcDbLine
 10
62.55070805701234
 20
1070.362104600222
 30
0.0
 11
58.51733760413345
 21
1070.362104600222
 31
0.0
  0
LINE
  5
1CD
330
2
100
AcDbEntity
  8
K-1
  6
HIDDEN
 62
     3
100
AcDbLine
 10
62.55070805701234
 20
1070.762104600222
 30
0.0
 11
58.2422021948023
 21
1070.762104600222
 31
0.0
  0
LINE
  5
1CE
330
2
100
AcDbEntity
  8
K-1
  6
HIDDEN
 62
     3
100
AcDbLine
 10
62.55070805701234
 20
1074.362104600222
 30
0.0
 11
56.55070805701234
 21
1074.362104600222
 31
0.0
  0
LINE
  5
1CF
330
2
100
AcDbEntity
  8
K-1
  6
HIDDEN
 62
     3
100
AcDbLine
 10
62.55070805701234
 20
1073.962104600222
 30
0.0
 11
55.34223043541032
 21
1073.962104600222
 31
0.0
  0
LINE
  5
1D0
102
{ACAD_REACTORS
330
1DE
102
}
330
2
100
AcDbEntity
  8
K-1
  6
HIDDEN
 62
     3
100
AcDbLine
 10
62.55070805701279
 20
1066.362104600222
 30
0.0
 11
62.55070805701234
 21
1075.024982898636
 31
0.0
  0
LINE
  5
1D1
330
2
100
AcDbEntity
  8
K-1
  6
HIDDEN
 62
     3
100
AcDbLine
 10
56.55070805701234
 20
1072.812004198228
 30
0.0
 11
56.55070805701234
 21
1074.362104600222
 31
0.0
  0
LINE
  5
1D2
330
2
100
AcDbEntity
  8
K-1
  6
HIDDEN
 62
     3
370
    25
100
AcDbLine
 10
56.55070805701234
 20
1074.362104600222
 30
0.0
 11
55.85788773398508
 21
1073.962104600222
 31
0.0
  0
LINE
  5
1D3
330
2
100
AcDbEntity
  8
K-1
  6
HIDDEN
 62
     3
100
AcDbLine
 10
21.55070805874766
 20
1066.362104600222
 30
0.0
 11
24.55070805714468
 21
1066.362104600222
 31
0.0
  0
LINE
  5
1D4
330
2
100
AcDbEntity
  8
K-1
  6
CENTER
 62
     2
100
AcDbLine
 10
19.68110897097085
 20
1072.362104600222
 30
0.0
 11
33.93512866284891
 21
1072.362104600222
 31
0.0
  0
LINE
  5
1D5
330
2
100
AcDbEntity
  8
K-1
  6
HIDDEN
 62
     3
100
AcDbLine
 10
24.55070805714513
 20
1070.362104600222
 30
0.0
 11
28.58407851002403
 21
1070.362104600222
 31
0.0
  0
LINE
  5
1D6
330
2
100
AcDbEntity
  8
K-1
  6
HIDDEN
 62
     3
100
AcDbLine
 10
24.55070805714513
 20
1070.762104600222
 30
0.0
 11
28.85921391935517
 21
1070.762104600222
 31
0.0
  0
LINE
  5
1D7
330
2
100
AcDbEntity
  8
K-1
  6
HIDDEN
 62
     3
100
AcDbLine
 10
24.55070805714513
 20
1074.362104600222
 30
0.0
 11
30.55070805714513
 21
1074.362104600222
 31
0.0
  0
LINE
  5
1D8
330
2
100
AcDbEntity
  8
K-1
  6
HIDDEN
 62
     3
100
AcDbLine
 10
24.55070805714513
 20
1073.962104600222
 30
0.0
 11
31.75918567874715
 21
1073.962104600222
 31
0.0
  0
LINE
  5
1D9
330
2
100
AcDbEntity
  8
K-1
  6
HIDDEN
 62
     3
100
AcDbLine
 10
24.55070805714468
 20
1066.362104600222
 30
0.0
 11
24.55070805714513
 21
1075.024982898636
 31
0.0
  0
LINE
  5
1DA
330
2
100
AcDbEntity
  8
K-1
  6
HIDDEN
 62
     3
100
AcDbLine
 10
30.55070805714513
 20
1072.812004198228
 30
0.0
 11
30.55070805714513
 21
1074.362104600222
 31
0.0
  0
LINE
  5
1DB
330
2
100
AcDbEntity
  8
K-1
  6
HIDDEN
 62
     3
370
    25
100
AcDbLine
 10
30.55070805714513
 20
1074.362104600222
 30
0.0
 11
31.2435283801724
 21
1073.962104600222
 31
0.0
  0
DIMENSION
  5
1DC
102
{ACAD_XDICTIONARY
360
1DD
102
}
102
{ACAD_REACTORS
330
1DE
102
}
330
2
100
AcDbEntity
  8
SUNPO
370
    25
100
AcDbDimension
  2
*D16
 10
24.55070805714513
 20
1108.362094531465
 30
0.0
 11
43.55070805707874
 21
1111.862094531465
 31
0.0
 71
     5
 42
37.99999999986721
  3
AM_JIS$0
100
AcDbAlignedDimension
 13
62.55070805701234
 23
1075.024982898636
 33
0.0
 14
24.55070805714513
 24
1075.024982898924
 34
0.0
100
AcDbRotatedDimension
  0
LINE
  5
1EB
330
2
100
AcDbEntity
  8
K-1
  6
CENTER
 62
     2
370
    25
100
AcDbLine
 10
69.79582122699958
 20
1032.356760420618
 30
0.0
 11
17.31628324636767
 21
1032.356760420618
 31
0.0
  0
LINE
  5
1EC
330
2
100
AcDbEntity
  8
K-1
  6
ByBlock
 62
     0
370
    25
100
AcDbLine
 10
19.55605223668363
 20
1033.356760420619
 30
0.0
 11
21.86545331344269
 21
1029.356760420619
 31
0.0
  0
LINE
  5
1ED
330
2
100
AcDbEntity
  8
K-1
  6
ByBlock
 62
     0
100
AcDbLine
 10
62.55605223668363
 20
1034.482716475075
 30
0.0
 11
62.55605223668363
 21
1033.356760420619
 31
0.0
  0
LINE
  5
1EE
330
2
100
AcDbEntity
  8
K-1
  6
ByBlock
 62
     0
370
    25
100
AcDbLine
 10
24.05371415810612
 20
1035.356760420619
 30
0.0
 11
20.05605223668363
 21
1035.356760420619
 31
0.0
  0
LINE
  5
1EF
330
2
100
AcDbEntity
  8
K-1
  6
ByBlock
 62
     0
370
    25
100
AcDbLine
 10
59.95797602533048
 20
1029.356760420618
 30
0.0
 11
59.6727019560526
 21
1029.356760420618
 31
0.0
  0
LINE
  5
1F0
330
2
100
AcDbEntity
  8
K-1
  6
ByBlock
 62
     0
370
    25
100
AcDbLine
 10
27.42871415810532
 20
1029.356760420619
 30
0.0
 11
21.86545331344269
 21
1029.356760420619
 31
0.0
  0
LINE
  5
1F1
330
2
100
AcDbEntity
  8
K-1
  6
ByBlock
 62
     0
100
AcDbLine
 10
19.55605223668363
 20
1034.856760420618
 30
0.0
 11
19.55605223668363
 21
1033.356760420619
 31
0.0
  0
ARC
  5
1F2
330
2
100
AcDbEntity
  8
K-1
  6
ByBlock
 62
     0
100
AcDbCircle
 10
20.05605223668363
 20
1034.856760420618
 30
0.0
 40
0.5
100
AcDbArc
 50
90.0
 51
180.0
  0
ARC
  5
1F3
330
2
100
AcDbEntity
  8
K-1
  6
ByBlock
 62
     0
370
    25
100
AcDbCircle
 10
22.15412844803677
 20
1029.856760420618
 30
0.0
 40
0.5
100
AcDbArc
 50
209.9999999999391
 51
270.0
  0
LINE
  5
1F4
330
2
100
AcDbEntity
  8
K-1
  6
ByBlock
 62
     0
370
    25
100
AcDbLine
 10
62.55605223668363
 20
1033.356760420619
 30
0.0
 11
60.39098872722252
 21
1029.606760420618
 31
0.0
  0
ARC
  5
1F5
330
2
100
AcDbEntity
  8
K-1
  6
ByBlock
 62
     0
370
    25
100
AcDbCircle
 10
59.95797602533139
 20
1029.856760420617
 30
0.0
 40
0.5
100
AcDbArc
 50
269.9999999998958
 51
330.0000000000754
  0
LWPOLYLINE
  5
1F6
330
2
100
AcDbEntity
  8
K-1
  6
PHANTOM
 62
     5
370
    25
100
AcDbPolyline
 90
        6
 70
     0
 43
0.0
 10
64.59195205097103
 20
1029.356760420618
 42
0.2493177950539188
 10
65.00646008881949
 20
1029.577148034342
 10
67.55605223668363
 20
1033.356760420619
 10
67.55605223668363
 20
1034.856760420618
 42
0.4142135623730951
 10
67.05605223668363
 20
1035.356760420619
 10
63.04770195605192
 20
1035.356760420619
  0
LINE
  5
1F8
330
2
100
AcDbEntity
  8
K-1
  6
PHANTOM
 62
     5
370
    25
100
AcDbLine
 10
64.59468476868687
 20
1029.356760420618
 30
0.0
 11
59.6727019560526
 21
1029.356760420618
 31
0.0
  0
LINE
  5
1F9
330
2
100
AcDbEntity
  8
K-1
  6
CENTER
 62
     2
370
    25
100
AcDbLine
 10
37.56177610966631
 20
1066.35638072724
 30
0.0
 11
49.53964000449104
 21
1054.378516832415
 31
0.0
  0
LINE
  5
1FA
102
{ACAD_REACTORS
330
1FE
102
}
330
2
100
AcDbEntity
  8
K-1
  6
HIDDEN
 62
     3
370
    25
100
AcDbLine
 10
39.07032315415847
 20
1062.599234118575
 30
0.0
 11
45.78783757543078
 21
1055.881719697302
 31
0.0
  0
LINE
  5
1FB
102
{ACAD_REACTORS
330
1FE
102
}
330
2
100
AcDbEntity
  8
K-1
  6
HIDDEN
 62
     3
370
    25
100
AcDbLine
 10
41.31892271833158
 20
1064.847833682748
 30
0.0
 11
48.03643713960389
 21
1058.130319261476
 31
0.0
  0
DIMENSION
  5
1FC
102
{ACAD_XDICTIONARY
360
1FD
102
}
102
{ACAD_REACTORS
330
1FE
102
}
330
2
100
AcDbEntity
  8
SUNPO
370
    25
100
AcDbDimension
  2
*D17
 10
20.51677425316473
 20
1081.152783019567
 30
0.0
 11
34.4797761589947
 21
1095.115784925398
 31
0.0
 70
   129
 71
     5
 42
3.179999999999836
  3
AM_JIS$0
100
AcDbAlignedDimension
 13
41.31892271833158
 23
1064.847833682748
 33
0.0
 14
39.07032315415847
 24
1062.599234118575
 34
0.0
1001
ACAD_DSTYLE_DIMINSPECT
1070
   396
1000
100%
1070
   395
1000

1070
   394
1070
    33
1070
   393
1070
     0
1001
ACAD
1000
DSTYLE
1002
{
1070
     3
1000
\U+03C6<>H7
1002
}
  0
LWPOLYLINE
  5
20D
330
2
100
AcDbEntity
  8
K-1
  6
ByBlock
 62
     0
100
AcDbPolyline
 90
        8
 70
     0
 43
0.0
 10
54.55070805707919
 20
908.2257140055853
 10
54.55070805707919
 20
905.7257140055853
 10
56.05070805707873
 20
905.7257140055845
 10
57.05070805707872
 20
906.7257140055842
 10
57.05070805707873
 20
916.7257140055854
 10
56.05070805707874
 20
917.7257140055855
 10
54.55070805707919
 20
917.7257140055854
 10
54.55070805707919
 20
915.2257140055853
1001
GENIUS_GENREC_14
1002
{
1000
PYDIR
1011
54.55070805707919
1021
905.7257140055853
1031
0.0
1002
}
1002
{
1000
PXDIR
1011
57.05070805707873
1021
917.7257140055854
1031
0.0
1002
}
1002
{
1000
PORI
1011
57.05070805707873
1021
905.7257140055853
1031
0.0
1002
}
1002
{
1000
PINS
1011
57.05070805707873
1021
905.7257140055853
1031
0.0
1002
}
1002
{
1000
PINS2
1011
54.55070805707919
1021
917.7257140055854
1031
0.0
1002
}
1002
{
1000
C
1070
     1
1002
}
1001
GENIUS_GENODEF_13
1002
{
1000
HIER
1070
     0
1002
}
1002
{
1000
MANEDIT
1070
     0
1002
}
1002
{
1000
NOSEL
1070
     0
1002
}
1002
{
1000
BEHIND
1070
     0
1002
}
1002
{
1000
OTHER
1070
     0
1002
}
1002
{
1000
REACTOR
1002
}
1001
GENIUS_GENOBJ-N-REC_13
1002
{
1000
OWNER
1000
GEN
1002
}
  0
LINE
  5
20E
330
2
100
AcDbEntity
  8
K-1
  6
ByBlock
 62
     0
370
    25
100
AcDbLine
 10
30.6060624672316
 20
915.5257140055857
 30
0.0
 11
31.74933717372915
 21
915.5257140055857
 31
0.0
  0
LINE
  5
20F
330
2
100
AcDbEntity
  8
K-1
  6
ByBlock
 62
     0
370
    25
100
AcDbLine
 10
30.60606246723148
 20
907.9257140055856
 30
0.0
 11
31.74933717372915
 21
907.9257140055856
 31
0.0
  0
LINE
  5
210
330
2
100
AcDbEntity
  8
K-1
  6
ByBlock
 62
     0
370
    25
100
AcDbLine
 10
31.74933717372915
 20
915.5257140055857
 30
0.0
 11
31.74933717372915
 21
907.9257140055856
 31
0.0
  0
LINE
  5
211
330
2
100
AcDbEntity
  8
K-1
  6
ByBlock
 62
     0
370
    25
100
AcDbLine
 10
29.5493371737291
 20
913.5992134051051
 30
0.0
 11
29.5493371737291
 21
909.8522146060663
 31
0.0
  0
ARC
  5
212
330
2
100
AcDbEntity
  8
K-1
  6
ByBlock
 62
     0
370
    25
100
AcDbCircle
 10
35.24933717372915
 20
911.7257140055857
 30
0.0
 40
6.0
100
AcDbArc
 50
198.1948723387613
 51
219.2964802391767
  0
ARC
  5
213
330
2
100
AcDbEntity
  8
K-1
  6
ByBlock
 62
     0
370
    25
100
AcDbCircle
 10
35.24933717372915
 20
911.7257140055857
 30
0.0
 40
6.0
100
AcDbArc
 50
140.7035197608233
 51
161.8051276612387
  0
LWPOLYLINE
  5
214
330
2
100
AcDbEntity
  8
K-1
  6
ByBlock
 62
     0
370
    25
100
AcDbPolyline
 90
        4
 70
     1
 43
0.0
 10
31.74933717372915
 20
915.7257140055858
 10
32.54904902134001
 20
915.7257140055858
 10
32.54904902134001
 20
907.7257140055857
 10
31.74933717372915
 20
907.7257140055857
1001
GENIUS_GENREC_14
1002
{
1000
PYDIR
1011
31.74933717372915
1021
907.7257140055857
1031
0.0
1002
}
1002
{
1000
PXDIR
1011
32.54904902134001
1021
915.7257140055858
1031
0.0
1002
}
1002
{
1000
PORI
1011
31.74933717372915
1021
915.7257140055858
1031
0.0
1002
}
1002
{
1000
PINS
1011
31.74933717372915
1021
915.7257140055858
1031
0.0
1002
}
1002
{
1000
PINS2
1011
32.54904902134001
1021
907.7257140055857
1031
0.0
1002
}
1002
{
1000
C
1070
     1
1002
}
1001
GENIUS_GENOBJ-N-REC_13
1002
{
1000
OWNER
1000
GEN
1002
}
1001
GENIUS_GENODEF_13
1002
{
1000
HIER
1070
     0
1002
}
1002
{
1000
MANEDIT
1070
     0
1002
}
1002
{
1000
NOSEL
1070
     0
1002
}
1002
{
1000
BEHIND
1070
     0
1002
}
1002
{
1000
OTHER
1070
     0
1002
}
1002
{
1000
REACTOR
1002
}
  0
LINE
  5
215
330
2
100
AcDbEntity
  8
K-1
  6
ByBlock
 62
     6
370
    25
100
AcDbLine
 10
30.60606246723092
 20
915.5257140055848
 30
0.0
 11
30.6060624672316
 21
907.9257140055856
 31
0.0
  0
LINE
  5
216
330
2
100
AcDbEntity
  8
K-1
  6
ByBlock
 62
     6
100
AcDbLine
 10
56.05070805707874
 20
917.7257140055855
 30
0.0
 11
56.05070805707237
 21
905.7257140055845
 31
0.0
  0
LINE
  5
217
330
2
100
AcDbEntity
  8
K-1
  6
CENTER
 62
     2
100
AcDbLine
 10
126.4511665130667
 20
1060.362104600223
 30
0.0
 11
385.2300850767242
 21
1060.362104600223
 31
0.0
  0
LINE
  5
218
330
2
100
AcDbEntity
  8
K-1
  6
ByBlock
100
AcDbLine
 10
350.1890561205873
 20
1082.362104600222
 30
0.0
 11
234.6890561205871
 21
1082.362104600223
 31
0.0
  0
LINE
  5
219
330
2
100
AcDbEntity
  8
K-1
  6
ByBlock
100
AcDbLine
 10
234.6890561205871
 20
1082.362104600223
 30
0.0
 11
234.189056120587
 21
1081.862104600223
 31
0.0
  0
LINE
  5
21A
330
2
100
AcDbEntity
  8
K-1
  6
ByBlock
100
AcDbLine
 10
234.189056120587
 20
1081.862104600223
 30
0.0
 11
234.189056120587
 21
1038.862104600223
 31
0.0
  0
LINE
  5
21B
330
2
100
AcDbEntity
  8
K-1
  6
ByBlock
100
AcDbLine
 10
234.189056120587
 20
1081.362104600223
 30
0.0
 11
233.1890561205846
 21
1081.362104600223
 31
0.0
  0
LINE
  5
21C
330
2
100
AcDbEntity
  8
K-1
  6
CENTER
 62
     2
100
AcDbLine
 10
271.1890561205868
 20
1096.112076731343
 30
0.0
 11
271.1890561205871
 21
1053.612328167482
 31
0.0
  0
LINE
  5
21D
330
2
100
AcDbEntity
  8
K-1
  6
ByBlock
 62
     0
370
    25
100
AcDbLine
 10
233.1890561204573
 20
1039.362104600223
 30
0.0
 11
234.1890561205875
 21
1039.362104600223
 31
0.0
  0
LINE
  5
21E
330
2
100
AcDbEntity
  8
K-1
  6
CENTERS
 62
     2
370
    25
100
AcDbLine
 10
315.1890561205866
 20
1040.362104600223
 30
0.0
 11
329.1890561205866
 21
1040.362104600223
 31
0.0
  0
LINE
  5
21F
330
2
100
AcDbEntity
  8
K-1
  6
CENTERS
 62
     2
370
    25
100
AcDbLine
 10
322.1890561205866
 20
1047.362104600223
 30
0.0
 11
322.1890561205866
 21
1033.362104600223
 31
0.0
  0
LINE
  5
220
330
2
100
AcDbEntity
  8
K-1
  6
CENTERS
 62
     2
370
    25
100
AcDbLine
 10
255.6890561205866
 20
1040.362104600223
 30
0.0
 11
269.6890561205866
 21
1040.362104600223
 31
0.0
  0
LINE
  5
221
330
2
100
AcDbEntity
  8
K-1
  6
CENTERS
 62
     2
370
    25
100
AcDbLine
 10
262.6890561205866
 20
1047.362104600223
 30
0.0
 11
262.6890561205866
 21
1033.362104600223
 31
0.0
  0
LINE
  5
222
330
2
100
AcDbEntity
  8
K-1
  6
CENTER
 62
     2
100
AcDbLine
 10
299.1796087658917
 20
901.6197922619355
 30
0.0
 11
271.1890561205871
 21
1060.362104600223
 31
0.0
  0
INSERT
  5
223
330
2
100
AcDbEntity
  8
K-1
  6
ByBlock
 62
     6
100
AcDbBlockReference
  2
NOCK1
 10
297.9907571882874
 20
908.3621046008479
 30
0.0
 41
2.0
 42
2.0
 43
2.0
  0
INSERT
  5
234
330
2
100
AcDbEntity
  8
K-1
  6
ByBlock
 62
     6
100
AcDbBlockReference
  2
NOCK1
 10
271.1890561205873
 20
1060.362104600847
 30
0.0
 41
2.0
 42
2.0
 43
2.0
  0
LINE
  5
235
330
2
100
AcDbEntity
  8
K-1
  6
ByBlock
100
AcDbLine
 10
234.189056120587
 20
1038.862104600223
 30
0.0
 11
234.6890561205871
 21
1038.362104600223
 31
0.0
  0
LWPOLYLINE
  5
236
330
2
100
AcDbEntity
  8
K-1
  6
ByBlock
 62
     0
370
    25
100
AcDbPolyline
 90
        6
 70
     1
 43
0.0
 10
248.1890561205873
 20
1071.862104600227
 42
0.4142135623730816
 10
253.189056120587
 20
1066.862104600227
 10
303.189056120587
 20
1066.862104600227
 42
0.4142135623730886
 10
308.1890561205871
 20
1071.862104600227
 10
308.1890561205871
 20
1075.024982898801
 10
248.1890561205871
 20
1075.024982898801
  0
CIRCLE
  5
237
330
2
100
AcDbEntity
  8
K-1
  6
ByBlock
 62
     6
100
AcDbCircle
 10
258.1890561205871
 20
1072.362104600219
 30
0.0
 40
2.0
  0
CIRCLE
  5
238
330
2
100
AcDbEntity
  8
K-1
  6
ByBlock
 62
     0
100
AcDbCircle
 10
258.1890561205871
 20
1072.362104600219
 30
0.0
 40
1.6
  0
CIRCLE
  5
239
330
2
100
AcDbEntity
  8
K-1
  6
ByBlock
 62
     6
100
AcDbCircle
 10
298.1890561205871
 20
1072.362104600219
 30
0.0
 40
2.0
  0
CIRCLE
  5
23A
330
2
100
AcDbEntity
  8
K-1
  6
ByBlock
 62
     0
100
AcDbCircle
 10
298.1890561205871
 20
1072.362104600219
 30
0.0
 40
1.6
  0
CIRCLE
  5
23B
330
2
100
AcDbEntity
  8
K-1
  6
ByBlock
 62
     6
100
AcDbCircle
 10
278.189056120587
 20
1072.362104600219
 30
0.0
 40
2.0
  0
CIRCLE
  5
23C
330
2
100
AcDbEntity
  8
K-1
  6
ByBlock
 62
     0
100
AcDbCircle
 10
278.189056120587
 20
1072.362104600219
 30
0.0
 40
1.6
  0
LINE
  5
23D
330
2
100
AcDbEntity
  8
K-1
  6
CENTERS
 62
     2
100
AcDbLine
 10
251.1890561205868
 20
1072.362104600219
 30
0.0
 11
265.1890561205868
 21
1072.362104600219
 31
0.0
  0
LINE
  5
23E
330
2
100
AcDbEntity
  8
K-1
  6
CENTERS
 62
     2
100
AcDbLine
 10
258.1890561205871
 20
1079.362104600219
 30
0.0
 11
258.1890561205871
 21
1065.362104600219
 31
0.0
  0
LINE
  5
23F
330
2
100
AcDbEntity
  8
K-1
  6
CENTERS
 62
     2
100
AcDbLine
 10
271.1890561205868
 20
1072.362104600219
 30
0.0
 11
285.1890561205868
 21
1072.362104600219
 31
0.0
  0
LINE
  5
240
330
2
100
AcDbEntity
  8
K-1
  6
CENTERS
 62
     2
100
AcDbLine
 10
278.189056120587
 20
1079.362104600219
 30
0.0
 11
278.189056120587
 21
1065.362104600219
 31
0.0
  0
LINE
  5
241
330
2
100
AcDbEntity
  8
K-1
  6
CENTERS
 62
     2
100
AcDbLine
 10
291.1890561205868
 20
1072.362104600219
 30
0.0
 11
305.1890561205868
 21
1072.362104600219
 31
0.0
  0
LINE
  5
242
330
2
100
AcDbEntity
  8
K-1
  6
CENTERS
 62
     2
100
AcDbLine
 10
298.1890561205871
 20
1079.362104600219
 30
0.0
 11
298.1890561205871
 21
1065.362104600219
 31
0.0
  0
LINE
  5
243
330
2
100
AcDbEntity
  8
K-1
  6
ByBlock
 62
     0
100
AcDbLine
 10
133.9107439570736
 20
1066.112104600223
 30
0.0
 11
133.1890561205866
 21
1064.862104600223
 31
0.0
  0
LINE
  5
244
330
2
100
AcDbEntity
  8
K-1
  6
ByBlock
 62
     0
100
AcDbLine
 10
133.1890561205866
 20
1064.862104600223
 30
0.0
 11
133.1890561205866
 21
1055.862104600223
 31
0.0
  0
LINE
  5
245
330
2
100
AcDbEntity
  8
K-1
  6
ByBlock
 62
     0
100
AcDbLine
 10
133.9107439570736
 20
1061.128806641693
 30
0.0
 11
133.9107439570736
 21
1059.595402558753
 31
0.0
  0
LINE
  5
246
330
2
100
AcDbEntity
  8
K-1
  6
ByBlock
 62
     0
100
AcDbLine
 10
133.9107439570736
 20
1061.128806641693
 30
0.0
 11
144.1890561205866
 21
1061.128806641693
 31
0.0
  0
LINE
  5
247
330
2
100
AcDbEntity
  8
K-1
  6
ByBlock
 62
     0
100
AcDbLine
 10
144.1890561205866
 20
1061.128806641693
 30
0.0
 11
144.1890561205866
 21
1066.112104600223
 31
0.0
  0
LINE
  5
248
330
2
100
AcDbEntity
  8
K-1
  6
ByBlock
 62
     0
100
AcDbLine
 10
133.9107439570736
 20
1059.595402558753
 30
0.0
 11
144.1890561205866
 21
1059.595402558753
 31
0.0
  0
LINE
  5
249
330
2
100
AcDbEntity
  8
K-1
  6
ByBlock
 62
     0
100
AcDbLine
 10
144.1890561205866
 20
1059.595402558753
 30
0.0
 11
144.1890561205866
 21
1054.612104600223
 31
0.0
  0
LINE
  5
24A
330
2
100
AcDbEntity
  8
K-1
  6
ByBlock
 62
     0
100
AcDbLine
 10
144.4390561205866
 20
1066.362104600223
 30
0.0
 11
154.1890561205866
 21
1066.362104600223
 31
0.0
  0
LINE
  5
24B
330
2
100
AcDbEntity
  8
K-1
  6
CENTER
 62
     2
100
AcDbLine
 10
138.6890561205866
 20
1067.809859515351
 30
0.0
 11
138.6890561205866
 21
1052.874493481735
 31
0.0
  0
LINE
  5
24C
330
2
100
AcDbEntity
  8
K-1
  6
HIDDEN
 62
     3
100
AcDbLine
 10
140.2790561205865
 20
1063.720861810859
 30
0.0
 11
140.2790561205865
 21
1057.003347389586
 31
0.0
  0
LINE
  5
24D
330
2
100
AcDbEntity
  8
K-1
  6
HIDDEN
 62
     3
100
AcDbLine
 10
137.0990561205867
 20
1063.720861810859
 30
0.0
 11
137.0990561205867
 21
1057.003347389587
 31
0.0
  0
LINE
  5
24E
330
2
100
AcDbEntity
  8
K-1
  6
ByBlock
 62
     0
370
    25
100
AcDbLine
 10
144.1890561205866
 20
1066.112104600223
 30
0.0
 11
133.9107439570736
 21
1066.112104600223
 31
0.0
  0
LINE
  5
24F
330
2
100
AcDbEntity
  8
K-1
  6
ByBlock
 62
     0
100
AcDbLine
 10
144.4390561205866
 20
1066.362104600223
 30
0.0
 11
144.1890561205866
 21
1066.112104600223
 31
0.0
  0
ARC
  5
250
330
2
100
AcDbEntity
  8
K-1
  6
ByBlock
 62
     0
100
AcDbCircle
 10
138.9986270118317
 20
1063.620455620958
 30
0.0
 40
5.66523332394777
100
AcDbArc
 50
153.9079852255083
 51
206.092014774479
  0
LINE
  5
251
330
2
100
AcDbEntity
  8
K-1
  6
ByBlock
 62
     0
370
    25
100
AcDbLine
 10
144.1890561205866
 20
1054.612104600223
 30
0.0
 11
133.9107439570736
 21
1054.612104600223
 31
0.0
  0
LINE
  5
252
330
2
100
AcDbEntity
  8
K-1
  6
ByBlock
 62
     0
100
AcDbLine
 10
144.4390561205866
 20
1054.362104600223
 30
0.0
 11
144.1890561205866
 21
1054.612104600223
 31
0.0
  0
ARC
  5
253
330
2
100
AcDbEntity
  8
K-1
  6
ByBlock
 62
     0
100
AcDbCircle
 10
138.9986270118317
 20
1057.103753579488
 30
0.0
 40
5.66523332394777
100
AcDbArc
 50
153.9079852255209
 51
206.0920147744917
  0
LINE
  5
254
330
2
100
AcDbEntity
  8
K-1
  6
ByBlock
 62
     0
100
AcDbLine
 10
133.9107439570736
 20
1054.612104600223
 30
0.0
 11
133.1890561205866
 21
1055.862104600223
 31
0.0
  0
LINE
  5
255
330
2
100
AcDbEntity
  8
K-1
  6
ByBlock
 62
     0
100
AcDbLine
 10
144.4390561205866
 20
1054.362104600223
 30
0.0
 11
154.1890561205873
 21
1054.362104600223
 31
0.0
  0
LINE
  5
256
330
2
100
AcDbEntity
  8
K-1
  6
ByBlock
 62
     6
100
AcDbLine
 10
144.4390561205866
 20
1066.362104600223
 30
0.0
 11
144.4390561205866
 21
1054.362104600223
 31
0.0
  0
LINE
  5
257
330
2
100
AcDbEntity
  8
K-1
  6
ByBlock
 62
     6
100
AcDbLine
 10
133.9107439570736
 20
1061.128806641693
 30
0.0
 11
137.5847080237835
 21
1062.910077471192
 31
0.0
  0
LINE
  5
258
330
2
100
AcDbEntity
  8
K-1
  6
ByBlock
 62
     6
100
AcDbLine
 10
140.1554722544085
 20
1064.15647706857
 30
0.0
 11
144.1890561205866
 21
1066.112104600223
 31
0.0
  0
LINE
  5
259
330
2
100
AcDbEntity
  8
K-1
  6
ByBlock
 62
     6
100
AcDbLine
 10
144.1890561205866
 20
1061.128806641693
 30
0.0
 11
140.0484532447182
 21
1063.13632086486
 31
0.0
  0
LINE
  5
25A
330
2
100
AcDbEntity
  8
K-1
  6
ByBlock
 62
     6
100
AcDbLine
 10
137.4276774343952
 20
1064.406967887211
 30
0.0
 11
133.9107439570745
 21
1066.112104600225
 31
0.0
  0
LINE
  5
25B
330
2
100
AcDbEntity
  8
K-1
  6
CENTER
 62
     2
100
AcDbLine
 10
135.8899231072179
 20
1063.720861810859
 30
0.0
 11
141.5664381897024
 21
1063.720861810859
 31
0.0
  0
LINE
  5
25C
330
2
100
AcDbEntity
  8
K-1
  6
ByBlock
 62
     6
100
AcDbLine
 10
133.9107439570736
 20
1059.595402558753
 30
0.0
 11
144.1890561205866
 21
1054.612104600223
 31
0.0
  0
LINE
  5
25D
330
2
100
AcDbEntity
  8
K-1
  6
ByBlock
 62
     6
100
AcDbLine
 10
144.1890561205866
 20
1059.595402558753
 30
0.0
 11
133.9107439570745
 21
1054.612104600221
 31
0.0
  0
ELLIPSE
  5
25E
330
2
100
AcDbEntity
  8
K-1
  6
ByBlock
 62
     0
370
    25
100
AcDbEllipse
 10
138.6890561205866
 20
1063.720861810859
 30
0.0
 11
-1.589999999999918
 21
-0.0000000000001137
 31
0.0
210
0.0
220
0.0
230
-1.0
 40
0.7087873408107626
 41
0.0
 42
6.283185307179586
  0
ELLIPSE
  5
25F
330
2
100
AcDbEntity
  8
K-1
  6
HIDDEN
 62
     3
370
    25
100
AcDbEllipse
 10
138.6890561205866
 20
1057.003347389587
 30
0.0
 11
-1.589999999999918
 21
0.0000000000001137
 31
0.0
210
0.0
220
0.0
230
1.0
 40
0.7087873408107626
 41
0.0
 42
6.283185307179586
  0
ARC
  5
260
330
2
100
AcDbEntity
  8
K-1
  6
ByBlock
 62
     0
100
AcDbCircle
 10
170.8890561205882
 20
1076.862104600223
 30
0.0
 40
0.3
100
AcDbArc
 50
359.9999999997394
 51
90.0
  0
LINE
  5
261
330
2
100
AcDbEntity
  8
K-1
  6
ByBlock
 62
     0
100
AcDbLine
 10
156.0103764641457
 20
1076.283424943782
 30
0.0
 11
154.1890561205861
 21
1074.462104600223
 31
0.0
  0
LINE
  5
262
330
2
100
AcDbEntity
  8
K-1
  6
ByBlock
 62
     0
100
AcDbLine
 10
154.1890561205878
 20
1046.262104600221
 30
0.0
 11
154.1890561205861
 21
1074.462104600223
 31
0.0
  0
LINE
  5
263
330
2
100
AcDbEntity
  8
K-1
  6
ByBlock
 62
     0
100
AcDbLine
 10
158.1316968077055
 20
1077.162104600223
 30
0.0
 11
170.8890561205882
 21
1077.162104600223
 31
0.0
  0
ARC
  5
264
330
2
100
AcDbEntity
  8
K-1
  6
ByBlock
 62
     0
100
AcDbCircle
 10
158.1316968077055
 20
1074.162104600222
 30
0.0
 40
3.0
100
AcDbArc
 50
90.0
 51
135.0000000000043
  0
ARC
  5
265
330
2
100
AcDbEntity
  8
K-1
  6
ByBlock
 62
     0
100
AcDbCircle
 10
170.8890561205882
 20
1043.862104600223
 30
0.0
 40
0.3
100
AcDbArc
 50
270.0
 51
0.000000000260551
  0
LINE
  5
266
330
2
100
AcDbEntity
  8
K-1
  6
ByBlock
 62
     0
100
AcDbLine
 10
171.1890561205884
 20
1043.862104600224
 30
0.0
 11
171.1890561203883
 21
1076.862115552568
 31
0.0
  0
LINE
  5
267
330
2
100
AcDbEntity
  8
K-1
  6
ByBlock
 62
     0
100
AcDbLine
 10
156.0103764641457
 20
1044.440784256664
 30
0.0
 11
154.1890561205878
 21
1046.262104600221
 31
0.0
  0
LINE
  5
268
330
2
100
AcDbEntity
  8
K-1
  6
ByBlock
 62
     0
100
AcDbLine
 10
158.1316968077055
 20
1043.562104600223
 30
0.0
 11
170.8890561205882
 21
1043.562104600223
 31
0.0
  0
ARC
  5
269
330
2
100
AcDbEntity
  8
K-1
  6
ByBlock
 62
     0
100
AcDbCircle
 10
158.1316968077055
 20
1046.562104600223
 30
0.0
 40
3.0
100
AcDbArc
 50
224.9999999999933
 51
270.0
  0
LINE
  5
26A
330
2
100
AcDbEntity
  8
K-1
  6
ByBlock
 62
     0
100
AcDbLine
 10
172.1890561205857
 20
1043.862104600223
 30
0.0
 11
172.1890561205857
 21
1076.862104600223
 31
0.0
  0
LINE
  5
26B
330
2
100
AcDbEntity
  8
K-1
  6
ByBlock
 62
     0
100
AcDbLine
 10
172.1890561205857
 20
1076.362104600223
 30
0.0
 11
171.1890561203913
 21
1076.362104600223
 31
0.0
  0
LINE
  5
26C
330
2
100
AcDbEntity
  8
K-1
  6
ByBlock
 62
     0
100
AcDbLine
 10
172.1890561205857
 20
1044.362104600223
 30
0.0
 11
171.1890561205853
 21
1044.362104600223
 31
0.0
  0
LINE
  5
26D
330
2
100
AcDbEntity
  8
K-1
  6
ByBlock
 62
     0
100
AcDbLine
 10
240.1890561205923
 20
1038.362104600223
 30
0.0
 11
234.6890561205871
 21
1038.362104600223
 31
0.0
  0
LINE
  5
26E
330
2
100
AcDbEntity
  8
K-1
  6
ByBlock
 62
     0
100
AcDbLine
 10
244.1890561205762
 20
1045.862104600226
 30
0.0
 11
244.1890561205763
 21
1082.362104600223
 31
0.0
  0
LINE
  5
26F
330
2
100
AcDbEntity
  8
K-1
  6
PHANTOM
 62
     5
100
AcDbLine
 10
317.2262754437886
 20
897.1711578403153
 30
0.0
 11
314.7324889893848
 21
911.3141236211788
 31
0.0
  0
LINE
  5
270
330
2
100
AcDbEntity
  8
K-1
  6
PHANTOM
 62
     5
100
AcDbLine
 10
283.7428118413738
 20
891.2671197996369
 30
0.0
 11
281.2490253869687
 21
905.4100855805058
 31
0.0
  0
INSERT
  5
271
330
2
100
AcDbEntity
  8
K-1
  6
ByBlock
 62
     6
100
AcDbBlockReference
  2
NOCK1
 10
297.9907571882859
 20
908.3621046008479
 30
0.0
 41
2.0
 42
2.0
 43
2.0
  0
LINE
  5
272
330
2
100
AcDbEntity
  8
K-1
  6
CENTER
 62
     2
100
AcDbLine
 10
272.4046674679193
 20
1008.362104601473
 30
0.0
 11
236.3150616458988
 21
1008.362104601474
 31
0.0
  0
LINE
  5
273
330
2
100
AcDbEntity
  8
K-1
  6
ByBlock
 62
     0
100
AcDbLine
 10
238.1718096129648
 20
996.3621046014727
 30
0.0
 11
248.189056120582
 21
996.3621046014726
 31
0.0
  0
LINE
  5
274
330
2
100
AcDbEntity
  8
K-1
  6
ByBlock
 62
     0
100
AcDbLine
 10
238.1718096129648
 20
1020.362104601473
 30
0.0
 11
243.5027646195675
 21
1020.362104601473
 31
0.0
  0
ARC
  5
275
330
2
100
AcDbEntity
  8
K-1
  6
ByBlock
 62
     0
100
AcDbCircle
 10
209.189056120586
 20
1008.362104601472
 30
0.0
 40
30.0
100
AcDbArc
 50
339.2164404041253
 51
20.78355959587471
  0
ARC
  5
276
330
2
100
AcDbEntity
  8
K-1
  6
ByBlock
 62
     0
100
AcDbCircle
 10
238.1718096129648
 20
997.3621046014727
 30
0.0
 40
1.0
100
AcDbArc
 50
159.2164404041252
 51
270.0
  0
ARC
  5
277
330
2
100
AcDbEntity
  8
K-1
  6
ByBlock
 62
     0
100
AcDbCircle
 10
238.1718096129648
 20
1019.362104601473
 30
0.0
 40
1.0
100
AcDbArc
 50
90.0
 51
200.7835595958747
  0
INSERT
  5
278
330
2
100
AcDbEntity
  8
K-1
  6
ByBlock
100
AcDbBlockReference
  2
ハンドル外観図-A
 10
297.9907571881713
 20
908.3621046008456
 30
0.0
  0
SPLINE
  5
2D0
330
2
100
AcDbEntity
  8
K-1
  6
ByBlock
 62
     6
100
AcDbSpline
210
0.0
220
0.0
230
1.0
 70
  1064
 71
     3
 72
     9
 73
     5
 74
     3
 42
0.000000001
 43
0.0000000001
 44
0.0000000001
 40
0.0
 40
0.0
 40
0.0
 40
0.0
 40
31.2652511008161
 40
48.73774070494572
 40
48.73774070494572
 40
48.73774070494572
 40
48.73774070494572
 10
308.8257961461622
 20
1021.288970998647
 30
0.0
 10
294.1006213273446
 20
1018.12144133229
 30
0.0
 10
271.1463277622499
 20
1013.183747435115
 30
0.0
 10
286.3620165855362
 20
999.9250466118514
 30
0.0
 10
291.8168440137097
 20
995.1717997656096
 30
0.0
 11
308.8257961461622
 21
1021.288970998647
 31
0.0
 11
280.3580591172567
 21
1008.362104601482
 31
0.0
 11
291.8168440137097
 21
995.1717997656096
 31
0.0
  0
ARC
  5
2D1
330
2
100
AcDbEntity
  8
K-1
  6
ByBlock
 62
     6
100
AcDbCircle
 10
273.8168440137042
 20
963.9948852293731
 30
0.0
 40
36.0
100
AcDbArc
 50
7.218151962098615
 51
59.99999999999872
  0
CIRCLE
  5
2D2
330
2
100
AcDbEntity
  8
K-1
  6
HIDDEN
 62
     3
100
AcDbCircle
 10
270.9965701885139
 20
911.7257140055944
 30
0.0
 40
3.500000000000002
  0
CIRCLE
  5
2D3
330
2
100
AcDbEntity
  8
K-1
  6
ByBlock
 62
     6
100
AcDbCircle
 10
282.1890561205846
 20
1040.362104602724
 30
0.0
 40
4.0
  0
TEXT
  5
2D4
330
2
100
AcDbEntity
  8
K-1
  6
ByBlock
100
AcDbText
 10
281.0948708449005
 20
1037.766920713855
 30
0.0
 40
5.0
  1
F
 41
0.8
  7
K1
100
AcDbText
  0
SPLINE
  5
2D5
330
2
100
AcDbEntity
  8
K-1
  6
ByBlock
 62
     6
100
AcDbSpline
210
0.0
220
0.0
230
1.0
 70
     8
 71
     3
 72
     8
 73
     4
 74
     0
 42
0.000000001
 43
0.0000000001
 40
2.083023669349866
 40
2.083023669349866
 40
2.083023669349866
 40
2.083023669349866
 40
3.226331374274217
 40
3.226331374274217
 40
3.226331374274217
 40
3.226331374274217
 10
245.9741516325639
 20
1020.544251888562
 30
0.0
 10
246.699335035325
 20
1020.532019596454
 30
0.0
 10
247.6113349150555
 20
1020.512405541998
 30
0.0
 10
248.8126890972572
 20
1020.481358102597
 30
0.0
  0
SPLINE
  5
2D6
330
2
100
AcDbEntity
  8
K-1
  6
ByBlock
 62
     6
370
    25
100
AcDbSpline
210
0.0
220
0.0
230
1.0
 70
     8
 71
     3
 72
     9
 73
     5
 74
     0
 42
0.000000001
 43
0.0000000001
 40
9.94739641081021
 40
9.94739641081021
 40
9.94739641081021
 40
9.94739641081021
 40
11.05856542595162
 40
15.53048239386054
 40
15.53048239386054
 40
15.53048239386054
 40
15.53048239386054
 10
248.8126890972572
 20
1020.481358102597
 30
0.0
 10
249.037072892409
 20
1020.178845261471
 30
0.0
 10
250.1098816731292
 20
1018.630953217912
 30
0.0
 10
250.7090981786105
 20
1016.85682926875
 30
0.0
 10
251.1890561205901
 20
1015.435798853758
 30
0.0
  0
LINE
  5
2D7
330
2
100
AcDbEntity
  8
K-1
  6
ByBlock
 62
     6
370
    25
100
AcDbLine
 10
244.9910170934081
 20
1021.544109656563
 30
0.0
 11
244.9910170934081
 21
1024.61170417677
 31
0.0
  0
ARC
  5
2D8
330
2
100
AcDbEntity
  8
K-1
  6
ByBlock
 62
     6
370
    25
100
AcDbCircle
 10
245.9910170934063
 20
1021.544109656561
 30
0.0
 40
1.0
100
AcDbArc
 50
179.9999999999023
 51
269.0336344576673
  0
LINE
  5
2D9
330
2
100
AcDbEntity
  8
K-1
  6
ByBlock
 62
     6
370
    25
100
AcDbLine
 10
279.0193670229314
 20
1033.356760420619
 30
0.0
 11
265.3587452182339
 21
1033.356760420619
 31
0.0
  0
CIRCLE
  5
2DA
330
2
100
AcDbEntity
  8
K-1
  6
ByBlock
 62
     0
100
AcDbCircle
 10
270.9965701885244
 20
911.7257140055944
 30
0.0
 40
6.0
  0
LINE
  5
2DB
330
2
100
AcDbEntity
  8
K-1
  6
ByBlock
 62
     6
100
AcDbLine
 10
156.8890561205865
 20
1043.83156543685
 30
0.0
 11
156.8890561205865
 21
1076.892643763596
 31
0.0
  0
LINE
  5
2DC
330
2
100
AcDbEntity
  8
K-1
  6
ByBlock
 62
     6
370
    25
100
AcDbLine
 10
175.2608528903103
 20
1042.862104600223
 30
0.0
 11
175.2608528903103
 21
1077.862104600223
 31
0.0
  0
LINE
  5
2DD
330
2
100
AcDbEntity
  8
K-1
  6
ByBlock
 62
     0
100
AcDbLine
 10
350.1890561205846
 20
1039.762104600223
 30
0.0
 11
350.1890561205853
 21
1036.362104600222
 31
0.0
  0
LINE
  5
2DE
330
2
100
AcDbEntity
  8
K-1
  6
ByBlock
100
AcDbLine
 10
350.189056120581
 20
1036.362104600225
 30
0.0
 11
350.1890561205826
 21
1028.714758561643
 31
0.0
  0
LINE
  5
2DF
330
2
100
AcDbEntity
  8
K-1
  6
ByBlock
 62
     6
100
AcDbLine
 10
350.189056120581
 20
1036.362104600225
 30
0.0
 11
350.18905612057
 21
1045.362104600228
 31
0.0
  0
INSERT
  5
2E0
330
2
100
AcDbEntity
  8
K-1
  6
ByBlock
 62
     6
100
AcDbBlockReference
 66
     1
  2
B03008A
 10
353.1890561205817
 20
1040.862104600215
 30
0.0
 50
270.0
  0
ATTRIB
  5
2F2
330
2E0
100
AcDbEntity
  8
KIKI
  6
ByBlock
 62
     0
100
AcDbText
 10
354.4890561205816
 20
1041.759623431341
 30
0.0
 40
0.1
  1
.
 50
270.0
 41
0.8000000000000001
  7
K1
100
AcDbAttribute
  2
M3
 70
    13
  0
SEQEND
  5
2F3
330
2E0
100
AcDbEntity
  8
K-1
  6
ByBlock
 62
     6
  0
LINE
  5
2F4
330
2
100
AcDbEntity
  8
K-1
  6
HIDDEN
 62
     3
100
AcDbLine
 10
361.2225144905356
 20
1037.613588178813
 30
0.0
 11
353.1890561205817
 21
1037.612104600215
 31
0.0
  0
LINE
  5
2F5
330
2
100
AcDbEntity
  8
K-1
  6
HIDDEN
 62
     3
100
AcDbLine
 10
353.1890561205817
 20
1037.612104600215
 30
0.0
 11
353.1890561205817
 21
1044.112104600215
 31
0.0
  0
LINE
  5
2F6
330
2
100
AcDbEntity
  8
K-1
  6
HIDDEN
 62
     3
100
AcDbLine
 10
353.1890561205817
 20
1044.112104600215
 30
0.0
 11
366.7206292814571
 21
1044.112104600215
 31
0.0
  0
ARC
  5
2F7
330
2
100
AcDbEntity
  8
K-1
  6
PHANTOM
 62
     5
100
AcDbCircle
 10
372.189056120586
 20
1076.233114786929
 30
0.0
 40
3.0
100
AcDbArc
 50
0.0
 51
90.0
  0
LINE
  5
2F8
330
2
100
AcDbEntity
  8
K-1
  6
PHANTOM
 62
     5
100
AcDbLine
 10
372.189056120586
 20
1079.233114786929
 30
0.0
 11
360.1890561205851
 21
1079.233114786929
 31
0.0
  0
LINE
  5
2F9
330
2
100
AcDbEntity
  8
K-1
  6
PHANTOM
 62
     5
100
AcDbLine
 10
360.1890561205851
 20
1079.233114786929
 30
0.0
 11
360.1890561205851
 21
1076.73311478693
 31
0.0
  0
LINE
  5
2FA
330
2
100
AcDbEntity
  8
K-1
  6
PHANTOM
 62
     5
100
AcDbLine
 10
360.1890561205851
 20
1076.73311478693
 30
0.0
 11
372.189056120586
 21
1076.73311478693
 31
0.0
  0
ARC
  5
2FB
330
2
100
AcDbEntity
  8
K-1
  6
PHANTOM
 62
     5
100
AcDbCircle
 10
372.189056120586
 20
1073.73311478693
 30
0.0
 40
3.0
100
AcDbArc
 50
28.9550243718609
 51
90.0
  0
ARC
  5
2FC
330
2
100
AcDbEntity
  8
K-1
  6
PHANTOM
 62
     5
100
AcDbCircle
 10
374.9890561205861
 20
1075.282308125413
 30
0.0
 40
0.2
100
AcDbArc
 50
208.955024371846
 51
0.0
  0
LINE
  5
2FD
330
2
100
AcDbEntity
  8
K-1
  6
ByBlock
100
AcDbLine
 10
350.1890561205873
 20
1082.362104599985
 30
0.0
 11
352.1890561205873
 21
1082.362104599985
 31
0.0
  0
LINE
  5
2FE
330
2
100
AcDbEntity
  8
K-1
  6
ByBlock
 62
     0
100
AcDbLine
 10
375.1890561205873
 20
1077.862104599986
 30
0.0
 11
375.1890561205864
 21
1041.768082778407
 31
0.0
  0
ARC
  5
2FF
330
2
100
AcDbEntity
  8
K-1
  6
ByBlock
100
AcDbCircle
 10
372.1890561205864
 20
1041.768082778407
 30
0.0
 40
3.0
100
AcDbArc
 50
295.142282281618
 51
0.0
  0
LINE
  5
300
330
2
100
AcDbEntity
  8
K-1
  6
ByBlock
 62
     6
100
AcDbLine
 10
371.6890561205864
 20
1078.362104599986
 30
0.0
 11
360.1890561205864
 21
1078.362104599986
 31
0.0
  0
LINE
  5
301
330
2
100
AcDbEntity
  8
K-1
  6
ByBlock
 62
     0
100
AcDbLine
 10
372.1890561205873
 20
1080.862104599986
 30
0.0
 11
354.1890561205873
 21
1080.862104599986
 31
0.0
  0
ARC
  5
302
330
2
100
AcDbEntity
  8
K-1
  6
ByBlock
 62
     0
100
AcDbCircle
 10
372.1890561205873
 20
1077.862104599986
 30
0.0
 40
3.0
100
AcDbArc
 50
359.9999999999968
 51
90.0
  0
ARC
  5
303
330
2
100
AcDbEntity
  8
K-1
  6
ByBlock
 62
     0
100
AcDbCircle
 10
372.1890561205873
 20
1076.233114786929
 30
0.0
 40
3.0
100
AcDbArc
 50
0.0
 51
90.0
  0
ARC
  5
304
330
2
100
AcDbEntity
  8
K-1
  6
ByBlock
 62
     6
100
AcDbCircle
 10
371.6890561205864
 20
1077.862104599986
 30
0.0
 40
0.5
100
AcDbArc
 50
0.0
 51
90.0
  0
LINE
  5
305
330
2
100
AcDbEntity
  8
K-1
  6
ByBlock
 62
     0
370
    25
100
AcDbLine
 10
354.1890561205873
 20
1080.862104599986
 30
0.0
 11
352.1890561205873
 21
1082.362104599985
 31
0.0
  0
LINE
  5
306
330
2
100
AcDbEntity
  8
K-1
  6
ByBlock
 62
     0
370
    25
100
AcDbLine
 10
352.1890561205883
 20
1029.067412522819
 30
0.0
 11
350.1890561205883
 21
1028.714758561402
 31
0.0
  0
LINE
  5
307
330
2
100
AcDbEntity
  8
K-1
  6
ByBlock
 62
     0
100
AcDbLine
 10
350.1890561205873
 20
1082.362104599985
 30
0.0
 11
350.1890561205873
 21
1028.714758561402
 31
0.0
  0
LINE
  5
308
330
2
100
AcDbEntity
  8
K-1
  6
CENTER
 62
     2
100
AcDbLine
 10
346.742052671987
 20
1040.86210460022
 30
0.0
 11
367.3222865370881
 21
1040.86210460022
 31
0.0
  0
LINE
  5
309
330
2
100
AcDbEntity
  8
K-1
  6
HIDDEN
 62
     3
100
AcDbLine
 10
353.1890561205873
 20
1042.56210460022
 30
0.0
 11
350.1890561205873
 21
1042.56210460022
 31
0.0
  0
LINE
  5
30A
330
2
100
AcDbEntity
  8
K-1
  6
HIDDEN
 62
     3
100
AcDbLine
 10
353.1890561205873
 20
1039.16210460022
 30
0.0
 11
350.1890561205873
 21
1039.16210460022
 31
0.0
  0
LINE
  5
30B
330
2
100
AcDbEntity
  8
K-1
  6
ByBlock
 62
     0
370
    25
100
AcDbLine
 10
352.1890561205883
 20
1082.362104599985
 30
0.0
 11
352.1890561205883
 21
1029.067412522819
 31
0.0
  0
LINE
  5
30C
330
2
100
AcDbEntity
  8
K-1
  6
ByBlock
100
AcDbLine
 10
352.1890561205883
 20
1049.464857241396
 30
0.0
 11
350.1890561205873
 21
1049.464857241396
 31
0.0
  0
LINE
  5
30D
330
2
100
AcDbEntity
  8
K-1
  6
ByBlock
100
AcDbLine
 10
352.1890561205883
 20
1046.05301657898
 30
0.0
 11
350.1890561205873
 21
1046.05301657898
 31
0.0
  0
LINE
  5
30E
330
2
100
AcDbEntity
  8
K-1
  6
ByBlock
100
AcDbLine
 10
352.1890561205883
 20
1042.790024364912
 30
0.0
 11
350.1890561205873
 21
1042.790024364912
 31
0.0
  0
LINE
  5
30F
330
2
100
AcDbEntity
  8
K-1
  6
ByBlock
100
AcDbLine
 10
373.4636588764342
 20
1039.052316254056
 30
0.0
 11
352.1890561205883
 21
1029.067412522819
 31
0.0
  0
LINE
  5
310
330
2
100
AcDbEntity
  8
K-1
  6
ByBlock
 62
     6
100
AcDbLine
 10
354.1890561205873
 20
1080.862104599986
 30
0.0
 11
354.1890561205873
 21
1060.362104600223
 31
0.0
  0
LINE
  5
311
330
2
100
AcDbEntity
  8
K-1
  6
ByBlock
 62
     6
100
AcDbLine
 10
372.1890561205864
 20
1077.862104599986
 30
0.0
 11
372.1890561205873
 21
1076.733114786929
 31
0.0
  0
LINE
  5
312
330
2
100
AcDbEntity
  8
K-1
  6
ByBlock
100
AcDbLine
 10
372.1890561205873
 20
1079.233114786929
 30
0.0
 11
360.1890561205864
 21
1079.233114786929
 31
0.0
  0
LINE
  5
313
330
2
100
AcDbEntity
  8
K-1
  6
ByBlock
100
AcDbLine
 10
360.1890561205864
 20
1079.233114786929
 30
0.0
 11
360.1890561205864
 21
1076.733114786929
 31
0.0
  0
LINE
  5
314
330
2
100
AcDbEntity
  8
K-1
  6
ByBlock
100
AcDbLine
 10
360.1890561205864
 20
1076.733114786929
 30
0.0
 11
372.1890561205873
 21
1076.733114786929
 31
0.0
  0
LINE
  5
315
330
2
100
AcDbEntity
  8
K-1
  6
ByBlock
100
AcDbLine
 10
372.1890561205873
 20
1074.080538696579
 30
0.0
 11
360.1890561205864
 21
1074.080538696579
 31
0.0
  0
LINE
  5
316
330
2
100
AcDbEntity
  8
K-1
  6
ByBlock
100
AcDbLine
 10
360.1890561205864
 20
1074.080538696579
 30
0.0
 11
360.1890561205864
 21
1069.984778475133
 31
0.0
  0
LINE
  5
317
330
2
100
AcDbEntity
  8
K-1
  6
ByBlock
100
AcDbLine
 10
360.1890561205864
 20
1069.984778475133
 30
0.0
 11
372.1890561205864
 21
1069.984778475134
 31
0.0
  0
LINE
  5
318
330
2
100
AcDbEntity
  8
K-1
  6
ByBlock
100
AcDbLine
 10
372.1890561205864
 20
1066.35734170847
 30
0.0
 11
360.1890561205864
 21
1066.35734170847
 31
0.0
  0
LINE
  5
319
330
2
100
AcDbEntity
  8
K-1
  6
ByBlock
100
AcDbLine
 10
360.1890561205864
 20
1066.35734170847
 30
0.0
 11
360.1890561205864
 21
1061.433302943409
 31
0.0
  0
LINE
  5
31A
330
2
100
AcDbEntity
  8
K-1
  6
ByBlock
100
AcDbLine
 10
360.1890561205864
 20
1061.433302943409
 30
0.0
 11
372.1890561205864
 21
1061.433302943409
 31
0.0
  0
LINE
  5
31B
330
2
100
AcDbEntity
  8
K-1
  6
ByBlock
100
AcDbLine
 10
372.1890561205873
 20
1057.510730656537
 30
0.0
 11
360.1890561205864
 21
1057.510730656537
 31
0.0
  0
LINE
  5
31C
330
2
100
AcDbEntity
  8
K-1
  6
ByBlock
100
AcDbLine
 10
360.1890561205864
 20
1057.510730656537
 30
0.0
 11
360.1890561205864
 21
1052.681101525092
 31
0.0
  0
LINE
  5
31D
330
2
100
AcDbEntity
  8
K-1
  6
ByBlock
100
AcDbLine
 10
360.1890561205864
 20
1052.681101525092
 30
0.0
 11
372.1890561205873
 21
1052.681101525092
 31
0.0
  0
ARC
  5
31E
330
2
100
AcDbEntity
  8
K-1
  6
ByBlock
 62
     0
100
AcDbCircle
 10
372.1890561205873
 20
1073.733114786929
 30
0.0
 40
3.0
100
AcDbArc
 50
28.9550243718609
 51
90.0
  0
ARC
  5
31F
330
2
100
AcDbEntity
  8
K-1
  6
ByBlock
100
AcDbCircle
 10
374.9890561205875
 20
1075.282308125413
 30
0.0
 40
0.2
100
AcDbArc
 50
208.9550243718497
 51
0.0
  0
LINE
  5
320
330
2
100
AcDbEntity
  8
K-1
  6
ByBlock
 62
     6
100
AcDbLine
 10
372.1890561205864
 20
1074.080538696579
 30
0.0
 11
372.1890561205864
 21
1069.984778475134
 31
0.0
  0
LINE
  5
321
330
2
100
AcDbEntity
  8
K-1
  6
ByBlock
 62
     6
100
AcDbLine
 10
372.1890561205864
 20
1066.35734170847
 30
0.0
 11
372.1890561205864
 21
1061.433302943409
 31
0.0
  0
LINE
  5
322
330
2
100
AcDbEntity
  8
K-1
  6
ByBlock
 62
     6
100
AcDbLine
 10
372.1890561205873
 20
1057.510730656537
 30
0.0
 11
372.1890561205873
 21
1052.681101525092
 31
0.0
  0
ARC
  5
323
330
2
100
AcDbEntity
  8
K-1
  6
ByBlock
 62
     0
100
AcDbCircle
 10
372.1890561205855
 20
1071.080538696579
 30
0.0
 40
3.0
100
AcDbArc
 50
0.0
 51
90.0
  0
ARC
  5
324
330
2
100
AcDbEntity
  8
K-1
  6
ByBlock
100
AcDbCircle
 10
372.1890561205864
 20
1064.933302943409
 30
0.0
 40
3.5
100
AcDbArc
 50
270.0
 51
328.9972808661375
  0
ARC
  5
325
330
2
100
AcDbEntity
  8
K-1
  6
ByBlock
100
AcDbCircle
 10
372.1890561205864
 20
1062.85734170847
 30
0.0
 40
3.5
100
AcDbArc
 50
31.00271913386046
 51
90.0
  0
ARC
  5
326
330
2
100
AcDbEntity
  8
K-1
  6
ByBlock
100
AcDbCircle
 10
372.1890561205864
 20
1054.010730656537
 30
0.0
 40
3.5
100
AcDbArc
 50
31.00271913386046
 51
90.0
  0
ARC
  5
327
330
2
100
AcDbEntity
  8
K-1
  6
ByBlock
100
AcDbCircle
 10
372.1890561205864
 20
1056.181101525092
 30
0.0
 40
3.5
100
AcDbArc
 50
270.0
 51
328.9972808661375
  0
LINE
  5
328
330
2
100
AcDbEntity
  8
K-1
  6
ByBlock
100
AcDbLine
 10
372.1890561205873
 20
1069.984778475134
 30
0.0
 11
374.0726130158655
 21
1069.76394904001
 31
0.0
  0
ARC
  5
329
330
2
100
AcDbEntity
  8
K-1
  6
ByBlock
100
AcDbCircle
 10
374.1890561205864
 20
1070.757146403761
 30
0.0
 40
1.0
100
AcDbArc
 50
263.3131318813217
 51
0.0
  0
ELLIPSE
  5
32A
330
2
100
AcDbEntity
  8
K-1
  6
ByBlock
 62
     0
370
    25
100
AcDbEllipse
 10
364.1890561205869
 20
1040.862104600217
 30
0.0
 11
-10.95814167901441
 21
-0.9587131702246956
 31
0.0
210
0.0
220
0.0
230
-1.0
 40
0.2832438023466669
 41
0.0
 42
6.283185307179586
  0
LINE
  5
32B
330
2
100
AcDbEntity
  8
K-1
  6
ByBlock
 62
     6
100
AcDbLine
 10
350.1890561205873
 20
1069.9620375991
 30
0.0
 11
307.8139610267693
 21
1069.9620375991
 31
0.0
  0
LINE
  5
32C
330
2
100
AcDbEntity
  8
K-1
  6
ByBlock
 62
     6
100
AcDbLine
 10
248.564151214405
 20
1069.9620375991
 30
0.0
 11
245.6890561205735
 21
1069.9620375991
 31
0.0
  0
LINE
  5
32D
330
2
100
AcDbEntity
  8
K-1
  6
ByBlock
 62
     6
100
AcDbLine
 10
245.6890561205734
 20
1050.778711505877
 30
0.0
 11
350.1890561205873
 21
1050.778711505878
 31
0.0
  0
ARC
  5
32E
330
2
100
AcDbEntity
  8
K-1
  6
ByBlock
 62
     6
100
AcDbCircle
 10
275.6056999898378
 20
1060.370374552489
 30
0.0
 40
31.41664495773103
100
AcDbArc
 50
162.2234774731145
 51
197.7765225268854
  0
LINE
  5
32F
330
2
100
AcDbEntity
  8
K-1
  6
ByBlock
 62
     6
100
AcDbLine
 10
245.6890561205735
 20
1082.362104600223
 30
0.0
 11
245.6890561205735
 21
1069.9620375991
 31
0.0
  0
LINE
  5
330
330
2
100
AcDbEntity
  8
K-1
  6
ByBlock
 62
     6
100
AcDbLine
 10
245.6890561205735
 20
1050.778711505878
 30
0.0
 11
245.6890561205735
 21
1045.862104600226
 31
0.0
  0
LINE
  5
331
330
2
100
AcDbEntity
  8
K-1
  6
ByBlock
 62
     6
100
AcDbLine
 10
234.6890561205871
 20
1082.362104600223
 30
0.0
 11
234.6890561205871
 21
1074.968587717338
 31
0.0
  0
LINE
  5
332
330
2
100
AcDbEntity
  8
K-1
  6
ByBlock
 62
     6
100
AcDbLine
 10
234.6890561205871
 20
1038.362104600223
 30
0.0
 11
234.6890561205871
 21
1045.755621483108
 31
0.0
  0
DIMENSION
  5
333
330
2
100
AcDbEntity
  8
SUNPO
100
AcDbDimension
  2
*D18
 10
375.1890561205873
 20
1117.845964019324
 30
0.0
 11
254.189056120587
 21
1121.345964019324
 31
0.0
 71
     5
 42
242.0000000000007
  3
AM_JIS$0
100
AcDbAlignedDimension
 13
133.1890561205866
 23
1064.862104600223
 33
0.0
 14
375.1890561205873
 24
1077.862104599986
 34
0.0
100
AcDbRotatedDimension
  0
DIMENSION
  5
340
330
2
100
AcDbEntity
  8
SUNPO
100
AcDbDimension
  2
*D19
 10
120.8904363862313
 20
1054.362104600223
 30
0.0
 11
120.8904363862311
 21
1060.362104600223
 31
0.0
 70
   128
 71
     5
 42
12.0
  3
AM_JIS$0
100
AcDbAlignedDimension
 13
144.4390561205866
 23
1066.362104600223
 33
0.0
 14
144.4390561205866
 24
1054.362104600223
 34
0.0
 50
90.0
100
AcDbRotatedDimension
1001
ACAD_DSTYLE_DIMINSPECT
1070
   396
1000
100%
1070
   395
1000

1070
   394
1070
    33
1070
   393
1070
     0
1001
ACAD
1000
DSTYLE
1002
{
1070
     3
1000
%%C<>g6
1002
}
  0
DIMENSION
  5
34D
330
2
100
AcDbEntity
  8
SUNPO
370
    25
100
AcDbDimension
  2
*D20
 10
154.1890561205861
 20
1107.924819888658
 30
0.0
 11
143.6890561205864
 21
1111.424819888658
 31
0.0
 71
     5
 42
20.99999999999955
  3
AM_JIS$0
100
AcDbAlignedDimension
 13
133.1890561205866
 23
1064.862104600223
 33
0.0
 14
154.1890561205861
 24
1074.462104600223
 34
0.0
100
AcDbRotatedDimension
  0
DIMENSION
  5
35A
330
2
100
AcDbEntity
  8
SUNPO
370
    25
100
AcDbDimension
  2
*D21
 10
133.1890561205866
 20
1097.724582627386
 30
0.0
 11
138.6890561205866
 21
1101.224582627386
 31
0.0
 71
     5
 42
11.0
  3
AM_JIS$0
100
AcDbAlignedDimension
 13
144.1890561205866
 23
1066.112104600223
 33
0.0
 14
133.1890561205866
 24
1064.862104600223
 34
0.0
100
AcDbRotatedDimension
  0
DIMENSION
  5
367
330
2
100
AcDbEntity
  8
SUNPO
100
AcDbDimension
  2
*D22
 10
375.1890561205873
 20
1107.924819888658
 30
0.0
 11
362.6890561205862
 21
1111.424819888658
 31
0.0
 71
     5
 42
25.00000000000227
  3
AM_JIS$0
100
AcDbAlignedDimension
 13
350.1890561205851
 23
1082.362104600223
 33
0.0
 14
375.1890561205873
 24
1077.862104599986
 34
0.0
100
AcDbRotatedDimension
  0
DIMENSION
  5
374
330
2
100
AcDbEntity
  8
SUNPO
370
    25
100
AcDbDimension
  2
*D27
 10
110.0194916481514
 20
1042.862104600223
 30
0.0
 11
106.5194916481512
 21
1060.362104600223
 31
0.0
 71
     5
 42
35.0
  3
AM_JIS$0
100
AcDbAlignedDimension
 13
175.2608528903103
 23
1077.862104600223
 33
0.0
 14
175.2608528903103
 24
1042.862104600223
 34
0.0
 50
90.0
100
AcDbRotatedDimension
1001
ACAD
1000
DSTYLE
1002
{
1070
     3
1000
%%C<>
1002
}
  0
DIMENSION
  5
381
330
2
100
AcDbEntity
  8
SUNPO
370
    25
100
AcDbDimension
  2
*D28
 10
217.9325470062468
 20
1038.462104600223
 30
0.0
 11
217.9325470062466
 21
1027.562104600223
 31
0.0
 70
   128
 71
     5
 42
43.79999999999973
  3
AM_JIS$0
100
AcDbAlignedDimension
 13
219.3621095051676
 23
1082.262104600222
 33
0.0
 14
217.9325470062468
 24
1038.462104600223
 34
0.0
 50
90.0
100
AcDbRotatedDimension
1001
ACAD
1000
DSTYLE
1002
{
1070
     3
1000
%%C<>
1002
}
  0
DIMENSION
  5
38E
330
2
100
AcDbEntity
  8
SUNPO
370
    25
100
AcDbDimension
  2
*D29
 10
234.189056120587
 20
1107.924819888658
 30
0.0
 11
292.1890561205872
 21
1111.424819888658
 31
0.0
 71
     5
 42
116.0000000000003
  3
AM_JIS$0
100
AcDbAlignedDimension
 13
350.1890561205873
 23
1082.362104599985
 33
0.0
 14
234.189056120587
 24
1081.862104600223
 34
0.0
100
AcDbRotatedDimension
  0
DIMENSION
  5
39B
330
2
100
AcDbEntity
  8
SUNPO
370
    25
100
AcDbDimension
  2
*D30
 10
154.1890561205861
 20
1107.924819888658
 30
0.0
 11
194.1890561205866
 21
1111.424819888658
 31
0.0
 71
     5
 42
80.0000000000009
  3
AM_JIS$0
100
AcDbAlignedDimension
 13
234.189056120587
 23
1081.862104600223
 33
0.0
 14
154.1890561205861
 24
1074.462104600223
 34
0.0
100
AcDbRotatedDimension
  0
DIMENSION
  5
3A8
330
2
100
AcDbEntity
  8
SUNPO
370
    25
100
AcDbDimension
  2
*D31
 10
184.0739923662186
 20
903.9090447945593
 30
0.0
 11
180.5739923662184
 21
982.135574697391
 31
0.0
  1
(<>)
 71
     5
 42
156.4530598056639
  3
AM_JIS$0
100
AcDbAlignedDimension
 13
149.4241023849317
 23
1060.362104600223
 33
0.0
 14
272.3748598697041
 24
903.9090447945591
 34
0.0
 50
90.0
100
AcDbRotatedDimension
1001
ACAD_DSTYLE_DIMINSPECT
1070
   396
1000
100%
1070
   395
1000

1070
   394
1070
    33
1070
   393
1070
     0
1001
ACAD
1000
DSTYLE
1002
{
1070
    76
1070
     0
1070
    75
1070
     1
1070
   271
1070
     1
1002
}
  0
DIMENSION
  5
3B4
330
2
100
AcDbEntity
  8
SUNPO
370
    25
100
AcDbDimension
  2
*D23
 10
144.1890561205866
 20
1088.314482935861
 30
0.0
 11
149.1819018951479
 21
1088.333609779554
 31
0.0
 70
   128
 71
     5
 42
5.5
  3
AM_JIS$0
100
AcDbAlignedDimension
 13
138.6890561205866
 23
1067.84971571871
 33
0.0
 14
144.1890561205866
 24
1066.112104600223
 34
0.0
100
AcDbRotatedDimension
1001
ACAD
1000
DSTYLE
1002
{
1070
   279
1070
     1
1002
}
  0
DIMENSION
  5
3C3
330
2
100
AcDbEntity
  8
SUNPO
370
    25
100
AcDbDimension
  2
*D24
 10
258.1890561205871
 20
1097.605145594876
 30
0.0
 11
246.1890561205871
 21
1101.105145594876
 31
0.0
 71
     5
 42
24.0
  3
AM_JIS$0
100
AcDbAlignedDimension
 13
234.189056120587
 23
1081.862104600223
 33
0.0
 14
258.1890561205871
 24
1079.362104600219
 34
0.0
100
AcDbRotatedDimension
  0
DIMENSION
  5
3D0
330
2
100
AcDbEntity
  8
SUNPO
370
    25
100
AcDbDimension
  2
*D25
 10
278.189056120587
 20
1097.605145594876
 30
0.0
 11
268.1890561205871
 21
1101.105145594876
 31
0.0
 71
     5
 42
20.0
  3
AM_JIS$0
100
AcDbAlignedDimension
 13
258.1890561205871
 23
1079.362104600219
 33
0.0
 14
278.189056120587
 24
1079.362104600219
 34
0.0
100
AcDbRotatedDimension
  0
DIMENSION
  5
3DD
330
2
100
AcDbEntity
  8
SUNPO
370
    25
100
AcDbDimension
  2
*D26
 10
298.1890561205871
 20
1097.605145594876
 30
0.0
 11
288.1890561205871
 21
1101.105145594876
 31
0.0
 71
     5
 42
20.0
  3
AM_JIS$0
100
AcDbAlignedDimension
 13
278.189056120587
 23
1079.362104600219
 33
0.0
 14
298.1890561205871
 24
1079.362104600219
 34
0.0
100
AcDbRotatedDimension
  0
DIMENSION
  5
3EA
330
2
100
AcDbEntity
  8
SUNPO
370
    25
100
AcDbDimension
  2
*D32
 10
297.5016107071811
 20
1070.483962219144
 30
0.0
 11
323.9995740546801
 21
1097.398299625438
 31
0.0
 70
   131
 71
     5
 42
4.000000000000227
  3
AM_JIS$3
100
AcDbDiametricDimension
 15
298.8765015339924
 25
1074.240246981293
 35
0.0
 40
0.0
1001
ACAD_DSTYLE_DIMRADIAL_EXTENSION
1070
   387
1070
     1
1070
   388
1040
0.0
1070
   390
1040
0.0
1001
ACAD_DSTYLE_DIMINSPECT
1070
   396
1000
100%
1070
   395
1000

1070
   394
1070
    33
1070
   393
1070
     0
1001
ACAD
1000
DSTYLE
1002
{
1070
     3
1000
3-M<>タップ深4
1070
   288
1070
     1
1002
}
  0
CIRCLE
  5
3F6
330
2
100
AcDbEntity
  8
K-1
  6
ByBlock
 62
     0
100
AcDbCircle
 10
43.5560522366834
 20
1060.362104600223
 30
0.0
 40
16.80000085000731
  0
CIRCLE
  5
3F7
330
2
100
AcDbEntity
  8
K-1
  6
ByBlock
 62
     6
370
    25
100
AcDbCircle
 10
43.56139641628828
 20
1060.362104600223
 30
0.0
 40
14.09999999999968
  0
CIRCLE
  5
3F8
330
2
100
AcDbEntity
  8
K-1
  6
ByBlock
 62
     0
100
AcDbCircle
 10
43.56139641628828
 20
1060.359276356612
 30
0.0
 40
19.00282824361056
  0
ELLIPSE
  5
3F9
330
2
100
AcDbEntity
  8
K-1
  6
ByBlock
 62
     0
100
AcDbEllipse
 10
43.56139641628828
 20
1081.881974063108
 30
0.0
 11
-2.049999999999954
 21
0.0
 31
0.0
210
0.0
220
0.0
230
1.0
 40
0.3503496601302852
 41
5.850925445728246
 42
9.857037822220718
  0
TEXT
  5
3FA
330
2
100
AcDbEntity
  8
K-1
  6
ByBlock
100
AcDbText
 10
143.915320528051
 20
885.5123679674761
 30
0.0
 40
4.0
  1
35.0
 41
0.8
  7
K1
 72
     1
 11
148.715320528051
 21
885.5123679674761
 31
0.0
100
AcDbText
  0
LINE
  5
3FB
330
2
100
AcDbEntity
  8
K-1
  6
ByBlock
 62
     6
100
AcDbLine
 10
84.21532052805105
 20
884.7623679674761
 30
0.0
 11
164.215320528051
 21
884.7623679674761
 31
0.0
  0
TEXT
  5
3FC
330
2
100
AcDbEntity
  8
K-1
  6
ByBlock
100
AcDbText
 10
85.71532052805105
 20
885.5123679674761
 30
0.0
 40
4.0
  1
定格トルク（公称）
 41
0.8
  7
K1
100
AcDbText
  0
LINE
  5
3FD
330
2
100
AcDbEntity
  8
K-1
  6
ByBlock
 62
     6
100
AcDbLine
 10
84.21532052805105
 20
870.7623679674762
 30
0.0
 11
164.215320528051
 21
870.7623679674762
 31
0.0
  0
TEXT
  5
3FE
330
2
100
AcDbEntity
  8
K-1
  6
ByBlock
100
AcDbText
 10
85.71532052805105
 20
871.5123679674761
 30
0.0
 40
4.0
  1
最高回転数
 41
0.85
  7
K1
100
AcDbText
  0
TEXT
  5
3FF
330
2
100
AcDbEntity
  8
K-1
  6
ByBlock
100
AcDbText
 10
85.71532052805105
 20
864.5123679674762
 30
0.0
 40
4.0
  1
重量
 41
0.85
  7
K1
100
AcDbText
  0
LWPOLYLINE
  5
400
330
2
100
AcDbEntity
  8
K-1
  6
ByBlock
100
AcDbPolyline
 90
        4
 70
     1
 43
0.0
 10
84.21532052805105
 20
899.7623679674761
 10
164.215320528051
 20
899.7623679674761
 10
164.215320528051
 20
863.7623679674762
 10
84.21532052805105
 20
863.7623679674762
1001
GENIUS_GENREC_14
1002
{
1000
PYDIR
1011
84.21532052805105
1021
863.7623679674762
1031
0.0
1002
}
1002
{
1000
PXDIR
1011
164.215320528051
1021
899.7623679674761
1031
0.0
1002
}
1002
{
1000
PORI
1011
84.21532052805105
1021
899.7623679674761
1031
0.0
1002
}
1002
{
1000
PINS
1011
84.21532052805105
1021
899.7623679674761
1031
0.0
1002
}
1002
{
1000
PINS2
1011
164.215320528051
1021
863.7623679674762
1031
0.0
1002
}
1002
{
1000
C
1070
     1
1002
}
1001
GENIUS_GENODEF_13
1002
{
1000
HIER
1070
     0
1002
}
1002
{
1000
MANEDIT
1070
     0
1002
}
1002
{
1000
NOSEL
1070
     0
1002
}
1002
{
1000
BEHIND
1070
     0
1002
}
1002
{
1000
OTHER
1070
     0
1002
}
1002
{
1000
REACTOR
1002
}
1001
GENIUS_GENOBJ-N-REC_13
1002
{
1000
OWNER
1000
GEN
1002
}
  0
LINE
  5
401
330
2
100
AcDbEntity
  8
K-1
  6
ByBlock
 62
     6
100
AcDbLine
 10
119.215320528051
 20
863.7623679674762
 30
0.0
 11
119.2153205280515
 21
877.2623679674762
 31
0.0
  0
LINE
  5
402
330
2
100
AcDbEntity
  8
K-1
  6
ByBlock
 62
     6
100
AcDbLine
 10
119.2153205280515
 20
884.7623679674761
 30
0.0
 11
119.215320528051
 21
891.7623679674761
 31
0.0
  0
LINE
  5
403
330
2
100
AcDbEntity
  8
K-1
  6
ByBlock
100
AcDbLine
 10
84.21532052805105
 20
891.7623679674761
 30
0.0
 11
164.215320528051
 21
891.7623679674761
 31
0.0
  0
TEXT
  5
404
330
2
100
AcDbEntity
  8
K-1
  6
ByBlock
100
AcDbText
 10
94.75999232365849
 20
893.0123679674762
 30
0.0
 40
4.0
  1
型式：HFT-035M80-P1
 41
0.85
  7
K1
100
AcDbText
  0
LINE
  5
405
330
2
100
AcDbEntity
  8
K-1
  6
ByBlock
 62
     6
100
AcDbLine
 10
134.215320528051
 20
863.7623679674762
 30
0.0
 11
134.2153205280515
 21
877.2623679674762
 31
0.0
  0
LINE
  5
406
330
2
100
AcDbEntity
  8
K-1
  6
ByBlock
 62
     6
100
AcDbLine
 10
134.2153205280515
 20
884.7623679674761
 30
0.0
 11
134.215320528051
 21
891.7623679674761
 31
0.0
  0
TEXT
  5
407
330
2
100
AcDbEntity
  8
K-1
  6
ByBlock
100
AcDbText
 10
144.4486538613843
 20
871.5123679674761
 30
0.0
 40
4.0
  1
778
 41
0.8
  7
K1
 72
     1
 11
148.715320528051
 21
871.5123679674761
 31
0.0
100
AcDbText
  0
TEXT
  5
408
330
2
100
AcDbEntity
  8
K-1
  6
ByBlock
100
AcDbText
 10
144.4486538613843
 20
864.5123679674762
 30
0.0
 40
4.0
  1
1.37
 41
0.8
  7
K1
 72
     1
 11
148.715320528051
 21
864.5123679674762
 31
0.0
100
AcDbText
  0
TEXT
  5
409
330
2
100
AcDbEntity
  8
K-1
  6
ByBlock
100
AcDbText
 10
123.2287650605021
 20
885.5123679674761
 30
0.0
 40
3.2
  1
N・m
 41
0.7
  7
K1
100
AcDbText
  0
TEXT
  5
40A
330
2
100
AcDbEntity
  8
K-1
  6
ByBlock
100
AcDbText
 10
122.5978384869695
 20
871.5123679674761
 30
0.0
 40
3.2
  1
r.p.m
 41
0.7
  7
K1
100
AcDbText
  0
TEXT
  5
40B
330
2
100
AcDbEntity
  8
K-1
  6
ByBlock
100
AcDbText
 10
123.2287650605021
 20
865.5123679674762
 30
0.0
 40
3.2
  1
kgf
 41
0.7
  7
K1
100
AcDbText
  0
LINE
  5
40C
330
2
100
AcDbEntity
  8
K-1
  6
ByBlock
 62
     6
100
AcDbLine
 10
84.21532052805105
 20
877.2623679674762
 30
0.0
 11
164.215320528051
 21
877.2623679674762
 31
0.0
  0
TEXT
  5
40D
330
2
100
AcDbEntity
  8
K-1
  6
ByBlock
100
AcDbText
 10
85.44640481365695
 20
879.8938329200682
 30
0.0
 40
3.2
  1
（伝達効率＝95％，熱低下＝95％含む）
 41
0.8
  7
K1
100
AcDbText
  0
ELLIPSE
  5
40E
330
2
100
AcDbEntity
  8
K-1
  6
ByBlock
 62
     0
100
AcDbEllipse
 10
22.04152695340395
 20
1060.362104600223
 30
0.0
 11
-0.0000000000000006
 21
-2.049999999999954
 31
0.0
210
0.0
220
0.0
230
1.0
 40
0.3503496601302852
 41
5.850925445728246
 42
9.857037822220718
  0
ELLIPSE
  5
40F
330
2
100
AcDbEntity
  8
K-1
  6
ByBlock
 62
     0
100
AcDbEllipse
 10
43.56139641628828
 20
1038.842235137339
 30
0.0
 11
2.049999999999954
 21
-0.0000000000000012
 31
0.0
210
0.0
220
0.0
230
1.0
 40
0.3503496601302852
 41
5.850925445728246
 42
9.857037822220718
  0
ELLIPSE
  5
410
330
2
100
AcDbEntity
  8
K-1
  6
ByBlock
 62
     0
100
AcDbEllipse
 10
65.08126587917264
 20
1060.362104600223
 30
0.0
 11
0.0000000000000022
 21
2.049999999999954
 31
0.0
210
0.0
220
0.0
230
1.0
 40
0.3503496601302852
 41
5.850925445728246
 42
9.857037822220718
  0
LINE
  5
411
330
2
100
AcDbEntity
  8
K-1
  6
ByBlock
 62
     0
100
AcDbLine
 10
175.2608528903103
 20
1077.862104600223
 30
0.0
 11
201.1890561205855
 21
1077.862104600223
 31
0.0
  0
LINE
  5
412
330
2
100
AcDbEntity
  8
K-1
  6
ByBlock
 62
     0
370
    25
100
AcDbLine
 10
172.1890561205857
 20
1076.862104600223
 30
0.0
 11
172.7608528903103
 21
1077.192231619145
 31
0.0
  0
ARC
  5
413
330
2
100
AcDbEntity
  8
K-1
  6
ByBlock
 62
     0
370
    25
100
AcDbCircle
 10
175.2608528903103
 20
1072.862104600223
 30
0.0
 40
5.0
100
AcDbArc
 50
90.0
 51
120.0000000000005
  0
LINE
  5
414
330
2
100
AcDbEntity
  8
K-1
  6
ByBlock
 62
     0
100
AcDbLine
 10
175.2608528903103
 20
1042.862104600223
 30
0.0
 11
201.1890561205855
 21
1042.862104600223
 31
0.0
  0
LINE
  5
415
330
2
100
AcDbEntity
  8
K-1
  6
ByBlock
 62
     0
370
    25
100
AcDbLine
 10
172.1890561205857
 20
1043.862104600223
 30
0.0
 11
172.7608528903103
 21
1043.531977581301
 31
0.0
  0
ARC
  5
416
330
2
100
AcDbEntity
  8
K-1
  6
ByBlock
 62
     0
370
    25
100
AcDbCircle
 10
175.2608528903103
 20
1047.862104600223
 30
0.0
 40
5.0
100
AcDbArc
 50
239.9999999999995
 51
270.0
  0
CIRCLE
  5
417
330
2
100
AcDbEntity
  8
K-1
  6
ByBlock
 62
     0
100
AcDbCircle
 10
43.55070805707874
 20
1060.362104600223
 30
0.0
 40
17.5
  0
LINE
  5
418
330
2
100
AcDbEntity
  8
K-1
  6
ByBlock
 62
     0
100
AcDbLine
 10
233.1890561204555
 20
1038.762100172468
 30
0.0
 11
233.1890561205864
 21
1081.962109027978
 31
0.0
  0
LINE
  5
419
330
2
100
AcDbEntity
  8
K-1
  6
ByBlock
 62
     0
370
    25
100
AcDbLine
 10
212.2937491538173
 20
1082.262109027979
 30
0.0
 11
232.8890561205863
 21
1082.262109027978
 31
0.0
  0
LINE
  5
41A
330
2
100
AcDbEntity
  8
K-1
  6
CENTER
 62
     2
370
    25
100
AcDbLine
 10
208.1890561205855
 20
1083.901294143385
 30
0.0
 11
208.1890561205855
 21
1076.896750635995
 31
0.0
  0
LINE
  5
41B
330
2
100
AcDbEntity
  8
K-1
  6
HIDDEN
 62
     3
370
    25
100
AcDbLine
 10
206.1390561205854
 20
1080.663761687596
 30
0.0
 11
206.1390561205854
 21
1078.562109027978
 31
0.0
  0
LINE
  5
41C
330
2
100
AcDbEntity
  8
K-1
  6
HIDDEN
 62
     3
370
    25
100
AcDbLine
 10
210.2390561205857
 20
1082.048744636766
 30
0.0
 11
210.2390561205857
 21
1078.562109027978
 31
0.0
  0
LINE
  5
41D
330
2
100
AcDbEntity
  8
K-1
  6
HIDDEN
 62
     3
370
    25
100
AcDbLine
 10
210.2390561205857
 20
1078.562109027978
 30
0.0
 11
206.1390561205854
 21
1078.562109027978
 31
0.0
  0
LINE
  5
41E
330
2
100
AcDbEntity
  8
K-1
  6
ByBlock
 62
     0
370
    25
100
AcDbLine
 10
201.1890561205855
 20
1042.562316566188
 30
0.0
 11
201.1890561205855
 21
1078.161901489769
 31
0.0
  0
ARC
  5
41F
330
2
100
AcDbEntity
  8
K-1
  6
ByBlock
 62
     0
370
    25
100
AcDbCircle
 10
232.8890561205863
 20
1081.962109027978
 30
0.0
 40
0.3
100
AcDbArc
 50
0.0
 51
90.0
  0
LINE
  5
420
330
2
100
AcDbEntity
  8
K-1
  6
ByBlock
 62
     0
370
    25
100
AcDbLine
 10
208.8735477205609
 20
1081.659035235838
 30
0.0
 11
201.8470359772598
 21
1079.101594110555
 31
0.0
  0
ARC
  5
421
330
2
100
AcDbEntity
  8
K-1
  6
ByBlock
 62
     0
370
    25
100
AcDbCircle
 10
202.1890561205855
 20
1078.161901489769
 30
0.0
 40
1.0
100
AcDbArc
 50
110.0
 51
180.0
  0
ARC
  5
422
330
2
100
AcDbEntity
  8
K-1
  6
ByBlock
 62
     0
370
    25
100
AcDbCircle
 10
212.2937491538171
 20
1072.262109027978
 30
0.0
 40
10.0
100
AcDbArc
 50
90.0
 51
109.9999999999894
  0
LINE
  5
423
330
2
100
AcDbEntity
  8
K-1
  6
ByBlock
 62
     0
370
    25
100
AcDbLine
 10
212.2937491538173
 20
1038.462109027978
 30
0.0
 11
232.8890561205863
 21
1038.462109027979
 31
0.0
  0
ARC
  5
424
330
2
100
AcDbEntity
  8
K-1
  6
ByBlock
 62
     0
370
    25
100
AcDbCircle
 10
212.2937491538171
 20
1048.462109027978
 30
0.0
 40
10.0
100
AcDbArc
 50
250.0000000000106
 51
270.0
  0
LINE
  5
425
330
2
100
AcDbEntity
  8
K-1
  6
CENTER
 62
     2
370
    25
100
AcDbLine
 10
208.1890561205855
 20
1036.822923912572
 30
0.0
 11
208.1890561205855
 21
1043.827467419962
 31
0.0
  0
LINE
  5
426
330
2
100
AcDbEntity
  8
K-1
  6
HIDDEN
 62
     3
370
    25
100
AcDbLine
 10
206.1390561205851
 20
1040.060456368361
 30
0.0
 11
206.1390561205854
 21
1042.162109027978
 31
0.0
  0
LINE
  5
427
330
2
100
AcDbEntity
  8
K-1
  6
HIDDEN
 62
     3
370
    25
100
AcDbLine
 10
210.2390561205855
 20
1038.675473419191
 30
0.0
 11
210.2390561205857
 21
1042.162109027978
 31
0.0
  0
LINE
  5
428
330
2
100
AcDbEntity
  8
K-1
  6
HIDDEN
 62
     3
370
    25
100
AcDbLine
 10
210.2390561205857
 20
1042.162109027978
 30
0.0
 11
206.1390561205854
 21
1042.162109027978
 31
0.0
  0
ARC
  5
429
330
2
100
AcDbEntity
  8
K-1
  6
ByBlock
 62
     0
370
    25
100
AcDbCircle
 10
202.1890561205855
 20
1042.562316566188
 30
0.0
 40
1.0
100
AcDbArc
 50
180.0
 51
249.9999999999999
  0
ARC
  5
42A
330
2
100
AcDbEntity
  8
K-1
  6
ByBlock
 62
     0
370
    25
100
AcDbCircle
 10
232.8890561205863
 20
1038.762109027979
 30
0.0
 40
0.3
100
AcDbArc
 50
270.0
 51
0.0
  0
LINE
  5
42B
330
2
100
AcDbEntity
  8
K-1
  6
ByBlock
 62
     0
370
    25
100
AcDbLine
 10
208.8735477205607
 20
1039.065182820119
 30
0.0
 11
201.8470359772598
 21
1041.622623945402
 31
0.0
  0
LINE
  5
42C
330
2
100
AcDbEntity
  8
K-1
  6
ByBlock
 62
     6
100
AcDbLine
 10
201.1890561205857
 20
1078.55620297278
 30
0.0
 11
201.1890561205857
 21
1078.862109027979
 31
0.0
  0
LINE
  5
42D
330
2
100
AcDbEntity
  8
K-1
  6
ByBlock
 62
     6
100
AcDbLine
 10
201.1890561205857
 20
1078.862109027979
 30
0.0
 11
201.5002304670306
 21
1078.975367227752
 31
0.0
  0
LINE
  5
42E
330
2
100
AcDbEntity
  8
K-1
  6
ByBlock
 62
     6
100
AcDbLine
 10
209.9707463737327
 20
1082.058382886669
 30
0.0
 11
210.5304671815763
 21
1082.262104600223
 31
0.0
  0
LINE
  5
42F
330
2
100
AcDbEntity
  8
K-1
  6
ByBlock
 62
     6
100
AcDbLine
 10
210.5304671815763
 20
1082.262104600223
 30
0.0
 11
211.1731438958582
 21
1082.262104600223
 31
0.0
  0
CIRCLE
  5
430
330
2
100
AcDbEntity
  8
K-1
  6
ByBlock
 62
     0
100
AcDbCircle
 10
208.1890561205855
 20
1060.362104600223
 30
0.0
 40
2.049999999999999
  0
LINE
  5
431
330
2
100
AcDbEntity
  8
K-1
  6
CENTERS
 62
     2
100
AcDbLine
 10
208.1890561205855
 20
1067.362104600223
 30
0.0
 11
208.1890561205855
 21
1053.362104600223
 31
0.0
  0
LINE
  5
432
330
2
100
AcDbEntity
  8
K-1
  6
ByBlock
 62
     6
370
    25
100
AcDbLine
 10
210.5304671815763
 20
1082.105423342089
 30
0.0
 11
210.5304671815763
 21
1038.618794713868
 31
0.0
  0
ENDSEC
  0
SECTION
  2
OBJECTS
  0
DICTIONARY
  5
B
330
0
100
AcDbDictionary
281
     1
  3
ACAD_2007HEADERVARS_RT
350
4D2
  3
ACAD_COLOR
350
4E
  3
ACAD_DETAILVIEWSTYLE
350
459
  3
ACAD_FIELDLIST
350
4BE
  3
ACAD_GROUP
350
49
  3
ACAD_LAYOUT
350
13
  3
ACAD_MATERIAL
350
D
  3
ACAD_MLEADERSTYLE
350
51
  3
ACAD_MLINESTYLE
350
4A
  3
ACAD_PLOTSETTINGS
350
4B
  3
ACAD_PLOTSTYLENAME
350
A
  3
ACAD_SCALELIST
350
4F
  3
ACAD_SECTIONVIEWSTYLE
350
482
  3
ACAD_TABLESTYLE
350
50
  3
ACAD_VISUALSTYLE
350
33
  3
ACDB_RECOMPOSE_DATA
350
4D1
  3
AcDbVariableDictionary
350
4C4
  3
AcDsDecomposeData
350
4D9
  3
AcmDictionary
350
44A
  3
AMG
350
43A
  0
DICTIONARY
  5
1D
330
1C
100
AcDbDictionary
280
     1
281
     1
  3
ACAD_LAYERFILTERS
360
1E
  3
ACAD_LAYERSTATES
360
27
  0
DICTIONARY
  5
7
330
6
100
AcDbDictionary
280
     1
281
     1
  3
ADSK_XREC_LAYER_RECONCILED
360
8
  0
DICTIONARY
  5
53
330
52
100
AcDbDictionary
280
     1
281
     1
  3
ADSK_XREC_LAYER_RECONCILED
360
54
  0
DICTIONARY
  5
187
330
186
100
AcDbDictionary
280
     1
281
     1
  3
ADSK_XREC_LAYER_RECONCILED
360
188
  0
DICTIONARY
  5
229
330
228
100
AcDbDictionary
280
     1
281
     1
  3
ADSK_XREC_LAYER_RECONCILED
360
22A
  0
DICTIONARY
  5
11C
330
11B
100
AcDbDictionary
280
     1
281
     1
  3
ADSK_XREC_LAYER_RECONCILED
360
11D
  0
DICTIONARY
  5
8C
330
8B
100
AcDbDictionary
280
     1
281
     1
  3
ADSK_XREC_LAYER_RECONCILED
360
8D
  0
DICTIONARY
  5
6D
330
6C
100
AcDbDictionary
280
     1
281
     1
  3
ADSK_XREC_LAYER_RECONCILED
360
6E
  0
DICTIONARY
  5
3
330
2
100
AcDbDictionary
280
     1
281
     1
  3
ACAD_SORTENTS
360
438
  0
DICTIONARY
  5
16
330
15
100
AcDbDictionary
280
     1
281
     1
  3
ACAD_SORTENTS
360
17
  0
DICTIONARY
  5
67
330
66
100
AcDbDictionary
280
     1
281
     1
  3
ACAD_SORTENTS
360
433
  0
DICTIONARY
  5
83
330
82
100
AcDbDictionary
280
     1
281
     1
  0
DICTIONARY
  5
A2
330
A1
100
AcDbDictionary
280
     1
281
     1
  3
ACAD_SORTENTS
360
435
  0
DICTIONARY
  5
B4
330
B3
100
AcDbDictionary
280
     1
281
     1
  3
ACAD_SORTENTS
360
436
  0
DICTIONARY
  5
9D
330
9C
100
AcDbDictionary
280
     1
281
     1
  3
ACAD_SORTENTS
360
437
  0
DICTIONARY
  5
225
330
224
100
AcDbDictionary
280
     1
281
     1
  0
DICTIONARY
  5
27A
330
279
100
AcDbDictionary
280
     1
281
     1
  3
ACAD_SORTENTS
360
434
  0
DICTIONARY
  5
198
330
197
100
AcDbDictionary
280
     1
281
     1
  3
ACAD_DIMASSOC
360
199
  0
DICTIONARY
  5
1A7
330
1A6
100
AcDbDictionary
280
     1
281
     1
  3
ACAD_DIMASSOC
360
1A8
  0
DICTIONARY
  5
1B6
330
1B5
100
AcDbDictionary
280
     1
281
     1
  3
ACAD_DIMASSOC
360
1B7
  0
DICTIONARY
  5
1DD
330
1DC
100
AcDbDictionary
280
     1
281
     1
  3
ACAD_DIMASSOC
360
1DE
  0
DICTIONARY
  5
1FD
330
1FC
100
AcDbDictionary
280
     1
281
     1
  3
ACAD_DIMASSOC
360
1FE
  0
DICTIONARY
  5
4D2
102
{ACAD_REACTORS
330
B
102
}
330
B
100
AcDbDictionary
281
     1
  3
INTERFEREVPVS
350
4D3
  0
DICTIONARY
  5
4E
102
{ACAD_REACTORS
330
B
102
}
330
B
100
AcDbDictionary
281
     1
  0
DICTIONARY
  5
459
102
{ACAD_REACTORS
330
B
102
}
330
B
100
AcDbDictionary
281
     1
  3
ASME Y14.35 - 1987(1)
350
462
  3
Imperial24
350
47E
  3
ISO 128-34_2001(1)
350
470
  3
JIS Z 8316 _ 1999(1)
350
478
  3
Metric50
350
47B
  0
FIELDLIST
  5
4BE
102
{ACAD_REACTORS
330
B
102
}
330
B
100
AcDbIdSet
 90
       15
330
465
330
466
330
467
330
485
330
486
330
487
330
48C
330
48D
330
48E
330
497
330
498
330
499
330
49E
330
49F
330
4A0
100
AcDbFieldList
  0
DICTIONARY
  5
49
102
{ACAD_REACTORS
330
B
102
}
330
B
100
AcDbDictionary
281
     1
  0
DICTIONARY
  5
13
102
{ACAD_REACTORS
330
B
102
}
330
B
100
AcDbDictionary
281
     1
  3
Model
350
12
  3
外形図
350
1A
  0
DICTIONARY
  5
D
102
{ACAD_REACTORS
330
B
102
}
330
B
100
AcDbDictionary
281
     1
  3
ByBlock
350
4D
  3
ByLayer
350
4C
  3
Global
350
C
  0
DICTIONARY
  5
51
102
{ACAD_REACTORS
330
B
102
}
330
B
100
AcDbDictionary
281
     1
  0
DICTIONARY
  5
4A
102
{ACAD_REACTORS
330
B
102
}
330
B
100
AcDbDictionary
281
     1
  3
Standard
350
55
  0
DICTIONARY
  5
4B
102
{ACAD_REACTORS
330
B
102
}
330
B
100
AcDbDictionary
281
     1
  0
ACDBDICTIONARYWDFLT
  5
A
102
{ACAD_REACTORS
330
B
102
}
330
B
100
AcDbDictionary
281
     1
  3
Normal
350
9
100
AcDbDictionaryWithDefault
340
9
  0
DICTIONARY
  5
4F
102
{ACAD_REACTORS
330
B
102
}
330
B
100
AcDbDictionary
281
     1
  3
A0
350
5A
  3
A1
350
5B
  3
A2
350
5C
  3
A3
350
5D
  3
A4
350
5E
  3
A5
350
5F
  3
A6
350
60
  3
A7
350
61
  3
A8
350
62
  3
A9
350
63
  3
B0
350
64
  0
DICTIONARY
  5
482
102
{ACAD_REACTORS
330
B
102
}
330
B
100
AcDbDictionary
281
     1
  3
ASME Y14.3 - 2003(1)
350
489
  3
Imperial24
350
4A5
  3
ISO 128_1982(1)
350
494
  3
JIS  B 0001 _ 2000(1)
350
49B
  3
Metric50
350
4A2
  0
DICTIONARY
  5
50
102
{ACAD_REACTORS
330
B
102
}
330
B
100
AcDbDictionary
281
     1
  3
Standard
350
56
  0
DICTIONARY
  5
33
102
{ACAD_REACTORS
330
B
102
}
330
B
100
AcDbDictionary
281
     1
  3
2dWireframe
350
32
  3
3dWireframe
350
59
  3
Realistic
350
58
  0
XRECORD
  5
4D1
102
{ACAD_REACTORS
330
B
102
}
330
B
100
AcDbXrecord
280
     1
 90
        1
330
56
  0
DICTIONARY
  5
4C4
102
{ACAD_REACTORS
330
B
102
}
330
B
100
AcDbDictionary
281
     1
  3
CANNOSCALE
350
4C9
  3
CMLEADERSTYLE
350
4C6
  3
CTABLESTYLE
350
4C5
  3
CVIEWDETAILSTYLE
350
4C7
  3
CVIEWSECTIONSTYLE
350
4C8
  3
DIMASSOC
350
4CE
  3
HIDETEXT
350
4CC
  3
INDEXCTL
350
4CB
  3
SOLIDHIST
350
4CF
  3
SORTENTS
350
4CA
  3
XCLIPFRAME
350
4CD
  0
DICTIONARY
  5
4D9
102
{ACAD_REACTORS
330
B
102
}
330
B
100
AcDbDictionary
281
     1
  3
AcDsRecords
350
4DB
  3
AcDsSchemas
350
4DA
1001
ACAD
1070
     2
  0
DICTIONARY
  5
44A
102
{ACAD_REACTORS
330
B
102
}
330
B
100
AcDbDictionary
281
     1
  3
AcmStdDictionary
350
44B
  0
DICTIONARY
  5
43A
102
{ACAD_REACTORS
330
B
102
}
330
B
100
AcDbDictionary
281
     1
  3
AcMgSettings
350
442
  0
DICTIONARY
  5
1E
102
{ACAD_REACTORS
330
1D
102
}
330
1D
100
AcDbDictionary
280
     1
281
     1
  3
A111-only
360
1F
  3
CENTER
360
20
  3
E511-only
360
21
  3
ganci
360
22
  3
kiseki
360
23
  3
OFF AND FROZEN
360
24
  3
TTB-only
360
25
  3
ロック解除
360
26
  0
DICTIONARY
  5
27
102
{ACAD_REACTORS
330
1D
102
}
330
1D
100
AcDbDictionary
281
     1
  0
XRECORD
  5
8
102
{ACAD_REACTORS
330
7
102
}
330
7
100
AcDbXrecord
280
     1
290
     1
  0
XRECORD
  5
54
102
{ACAD_REACTORS
330
53
102
}
330
53
100
AcDbXrecord
280
     1
290
     1
  0
XRECORD
  5
188
102
{ACAD_REACTORS
330
187
102
}
330
187
100
AcDbXrecord
280
     1
290
     1
  0
XRECORD
  5
22A
102
{ACAD_REACTORS
330
229
102
}
330
229
100
AcDbXrecord
280
     1
290
     1
  0
XRECORD
  5
11D
102
{ACAD_REACTORS
330
11C
102
}
330
11C
100
AcDbXrecord
280
     1
290
     1
  0
XRECORD
  5
8D
102
{ACAD_REACTORS
330
8C
102
}
330
8C
100
AcDbXrecord
280
     1
290
     1
  0
XRECORD
  5
6E
102
{ACAD_REACTORS
330
6D
102
}
330
6D
100
AcDbXrecord
280
     1
290
     1
  0
SORTENTSTABLE
  5
438
102
{ACAD_REACTORS
330
3
102
}
330
3
100
AcDbSortentsTable
330
2
  0
SORTENTSTABLE
  5
17
102
{ACAD_REACTORS
330
16
102
}
330
16
100
AcDbSortentsTable
330
15
  0
SORTENTSTABLE
  5
433
102
{ACAD_REACTORS
330
67
102
}
330
67
100
AcDbSortentsTable
330
66
  0
SORTENTSTABLE
  5
435
102
{ACAD_REACTORS
330
A2
102
}
330
A2
100
AcDbSortentsTable
330
A1
  0
SORTENTSTABLE
  5
436
102
{ACAD_REACTORS
330
B4
102
}
330
B4
100
AcDbSortentsTable
330
B3
331
CA
  5
CB
331
C2
  5
C3
331
BE
  5
BF
331
BA
  5
BB
331
D5
  5
B7
331
D1
  5
D2
331
CD
  5
CE
331
C5
  5
C6
331
C9
  5
CA
331
C1
  5
C2
331
BD
  5
BE
331
B9
  5
BA
331
D4
  5
D5
331
D0
  5
D1
331
CC
  5
CD
331
C4
  5
C5
331
C8
  5
C9
331
C0
  5
C1
331
BC
  5
BD
331
B8
  5
B9
331
D3
  5
D4
331
CF
  5
D0
331
C7
  5
C8
331
CB
  5
CC
331
C3
  5
C4
331
BF
  5
C0
331
B7
  5
B8
331
BB
  5
BC
331
D2
  5
D3
331
CE
  5
CF
331
C6
  5
C7
  0
SORTENTSTABLE
  5
437
102
{ACAD_REACTORS
330
9D
102
}
330
9D
100
AcDbSortentsTable
330
9C
  0
SORTENTSTABLE
  5
434
102
{ACAD_REACTORS
330
27A
102
}
330
27A
100
AcDbSortentsTable
330
279
331
296
  5
29D
331
29C
  5
2A3
331
2A4
  5
2B3
331
2AA
  5
2B9
331
2B8
  5
2C5
331
2B2
  5
2C0
331
27F
  5
281
331
2C0
  5
2C7
331
28D
  5
291
331
2CE
  5
27D
331
287
  5
289
331
295
  5
29C
331
29B
  5
2A2
331
2A3
  5
2B2
331
2A9
  5
2B8
331
2B1
  5
2C3
331
27E
  5
280
331
2BF
  5
2C6
331
28C
  5
290
331
286
  5
288
331
2C7
  5
27E
331
2CD
  5
2CE
331
294
  5
29A
331
29A
  5
2A1
331
2A8
  5
2B7
331
2A2
  5
2B0
331
2B0
  5
2C1
331
27D
  5
27F
331
2BE
  5
2A4
331
28B
  5
28F
331
285
  5
287
331
2C6
  5
2C8
331
2CC
  5
2CD
331
293
  5
299
331
299
  5
2A0
331
2A1
  5
2AF
331
2AF
  5
2BF
331
2B7
  5
2C4
331
2BD
  5
28D
331
28A
  5
28E
331
284
  5
286
331
2C5
  5
292
331
2CB
  5
2CC
331
292
  5
298
331
298
  5
29F
331
2A0
  5
2AE
331
2AE
  5
2BE
331
2B6
  5
2A5
331
2BC
  5
2A7
331
2CA
  5
2CB
331
283
  5
285
331
2C4
  5
2B1
331
289
  5
28B
331
291
  5
297
331
29F
  5
2AD
331
2A7
  5
2B6
331
2AD
  5
2BD
331
2B5
  5
2A6
331
2BB
  5
2A8
331
2C9
  5
2CA
331
282
  5
284
331
2C3
  5
2BC
331
288
  5
28A
331
290
  5
296
331
29E
  5
2AC
331
2A6
  5
2B5
331
2AC
  5
2BB
331
2B4
  5
28C
331
2BA
  5
2A9
331
2C8
  5
2C9
331
281
  5
283
331
2C2
  5
29B
331
28F
  5
295
331
297
  5
29E
331
29D
  5
2AB
331
2A5
  5
2B4
331
2AB
  5
2BA
331
2B9
  5
2AA
331
2B3
  5
2C2
331
280
  5
282
331
2C1
  5
294
331
28E
  5
293
  0
DIMASSOC
  5
199
102
{ACAD_REACTORS
330
198
102
}
330
198
100
AcDbDimAssoc
330
197
 90
        1
 70
     0
 71
     0
  1
AcDbOsnapPointRef
 72
     1
331
12E
 73
     2
 91
        0
 40
1.0
 10
0.0
 20
0.0
 30
2.000000000000000E+50
 75
     0
  0
DIMASSOC
  5
1A8
102
{ACAD_REACTORS
330
1A7
102
}
330
1A7
100
AcDbDimAssoc
330
1A6
 90
        3
 70
     0
 71
     0
  1
AcDbOsnapPointRef
 72
     1
331
12E
 73
     2
 91
        0
 40
1.0
 10
0.0
 20
0.0
 30
2.000000000000000E+50
 75
     0
  1
AcDbOsnapPointRef
 72
     1
331
15E
 73
     2
 91
        0
 40
1.0
 10
0.0
 20
0.0
 30
2.000000000000000E+50
 75
     0
  0
DIMASSOC
  5
1B7
102
{ACAD_REACTORS
330
1B6
102
}
330
1B6
100
AcDbDimAssoc
330
1B5
 90
        3
 70
     0
 71
     0
  1
AcDbOsnapPointRef
 72
     1
331
121
 73
     2
 91
        0
 40
1.0
 10
0.0
 20
0.0
 30
2.000000000000000E+50
 75
     0
  1
AcDbOsnapPointRef
 72
     8
331
12B
 73
     2
 91
        0
 40
0.0
 10
0.0
 20
0.0
 30
0.0
 75
     1
  1
AcDbOsnapPointRef
 72
     1
331
121
 73
     2
 91
        0
 40
1.0
 10
0.0
 20
0.0
 30
2.000000000000000E+50
 75
     0
  0
DIMASSOC
  5
1DE
102
{ACAD_REACTORS
330
1DD
102
}
330
1DD
100
AcDbDimAssoc
330
1DC
 90
        1
 70
     0
 71
     0
  1
AcDbOsnapPointRef
 72
     1
331
1D0
 73
     2
 91
        0
 40
1.0
 10
0.0
 20
0.0
 30
2.000000000000000E+50
 75
     0
  0
DIMASSOC
  5
1FE
102
{ACAD_REACTORS
330
1FD
102
}
330
1FD
100
AcDbDimAssoc
330
1FC
 90
        3
 70
     0
 71
     0
  1
AcDbOsnapPointRef
 72
    13
331
1FB
 73
     2
 91
        0
 40
0.0
 10
0.0
 20
0.0
 30
2.000000000000000E+50
 75
     0
  1
AcDbOsnapPointRef
 72
    13
331
1FA
 73
     2
 91
        0
 40
0.0
 10
0.0
 20
0.0
 30
2.000000000000000E+50
 75
     0
  0
XRECORD
  5
4D3
102
{ACAD_REACTORS
330
4D2
102
}
330
4D2
100
AcDbXrecord
280
     1
340
59
  0
ACDBDETAILVIEWSTYLE
  5
462
102
{ACAD_XDICTIONARY
360
463
102
}
102
{ACAD_REACTORS
330
459
330
461
102
}
330
459
100
AcDbModelDocViewStyle
 70
     0
  3

290
     0
100
AcDbDetailViewStyle
 70
     0
 71
     0
 90
        3
 71
     1
340
468
 40
0.24
340
469
 40
0.24
300

 40
0.0
280
     2
 71
     2
340
46E
 90
       25
 71
     3
340
468
 40
0.24
 90
        1
 40
0.0
 90
        1
300
DETAIL %<\AcVar ViewDetailId>%\PSCALE %<\AcVar ViewScale \f "%sn">%
 71
     4
340
10
 90
       25
340
46E
 90
       25
280
     0
  0
ACDBDETAILVIEWSTYLE
  5
47E
102
{ACAD_XDICTIONARY
360
47F
102
}
102
{ACAD_REACTORS
330
459
330
47D
102
}
330
459
100
AcDbModelDocViewStyle
 70
     0
  3
Imperial24
290
     0
100
AcDbDetailViewStyle
 70
     0
 71
     0
 90
        3
 71
     1
340
29
 40
0.24
340
0
 40
0.24
300

 40
0.36
280
     3
 71
     2
340
10
 90
       25
 71
     3
340
29
 40
0.24
 90
        1
 40
0.75
 90
        1
300
%<\AcVar ViewType \f "%tc1">% %<\AcVar ViewDetailId>%\PSCALE %<\AcVar ViewScale \f "%sn">%
 71
     4
340
10
 90
       25
340
10
 90
       25
280
     0
1001
ACAD
1000
AcRTDxfName
1000
ACDBDETAILVIEWSTYLE
  0
ACDBDETAILVIEWSTYLE
  5
470
102
{ACAD_XDICTIONARY
360
471
102
}
102
{ACAD_REACTORS
330
459
330
46F
102
}
330
459
100
AcDbModelDocViewStyle
 70
     0
  3

290
     0
100
AcDbDetailViewStyle
 70
     0
 71
     0
 90
        3
 71
     1
340
472
 40
5.0
340
473
 40
5.0
300

 40
0.0
280
     0
 71
     2
340
10
 90
       25
 71
     3
340
472
 40
5.0
 90
        0
 40
0.0
 90
        1
300
%<\AcVar ViewDetailId>% (%<\AcVar ViewScale \f "%sn">%)
 71
     4
340
10
 90
       25
340
10
 90
       25
280
     0
  0
ACDBDETAILVIEWSTYLE
  5
478
102
{ACAD_XDICTIONARY
360
479
102
}
102
{ACAD_REACTORS
330
459
330
477
102
}
330
459
100
AcDbModelDocViewStyle
 70
     0
  3

290
     0
100
AcDbDetailViewStyle
 70
     0
 71
     0
 90
        3
 71
     1
340
44D
 40
4.5
340
45B
 40
4.5
300

 40
0.0
280
     0
 71
     2
340
10
 90
       25
 71
     3
340
44D
 40
4.5
 90
        0
 40
0.0
 90
        1
300
%<\AcVar ViewDetailId>% (%<\AcVar ViewScale \f "%sn">%)
 71
     4
340
10
 90
       25
340
10
 90
       25
280
     0
  0
ACDBDETAILVIEWSTYLE
  5
47B
102
{ACAD_XDICTIONARY
360
47C
102
}
102
{ACAD_REACTORS
330
459
330
47A
102
}
330
459
100
AcDbModelDocViewStyle
 70
     0
  3
Metric50
290
     0
100
AcDbDetailViewStyle
 70
     0
 71
     0
 90
        3
 71
     1
340
29
 40
5.0
340
0
 40
5.0
300

 40
0.0
280
     1
 71
     2
340
10
 90
       25
 71
     3
340
29
 40
5.0
 90
        0
 40
15.0
 90
        1
300
%<\AcVar ViewDetailId>% (%<\AcVar ViewScale \f "%sn">%)
 71
     4
340
10
 90
       25
340
10
 90
       25
280
     0
  0
LAYOUT
  5
12
102
{ACAD_XDICTIONARY
360
14
102
}
102
{ACAD_REACTORS
330
13
102
}
330
13
100
AcDbPlotSettings
  1

  2
EPSON LP-8200表紙
  4
A3
  6

 40
5.873749732971191
 41
5.873747825622558
 42
5.789093017578125
 43
5.873748779296875
 44
296.9259948730469
 45
419.9466552734374
 46
0.0
 47
0.0
 48
1218.835480609299
 49
-77.0280712427367
140
1626.835480609299
141
207.9719287572633
142
1.0
143
1.0
 70
 11952
 72
     1
 73
     1
 74
     4
  7
A3-A3.ctb
 75
    16
147
1.0
148
-1218.835480609299
149
77.0280712427367
100
AcDbLayout
  1
Model
 70
     1
 71
     0
 10
0.0
 20
0.0
 11
12.0
 21
9.0
 12
0.0
 22
0.0
 32
0.0
 14
0.0
 24
0.0
 34
0.0
 15
0.0
 25
0.0
 35
0.0
146
0.0
 13
0.0
 23
0.0
 33
0.0
 16
1.0
 26
0.0
 36
0.0
 17
0.0
 27
1.0
 37
0.0
 76
     0
330
2
331
31
  0
LAYOUT
  5
1A
102
{ACAD_XDICTIONARY
360
1B
102
}
102
{ACAD_REACTORS
330
13
102
}
330
13
100
AcDbPlotSettings
  1

  2
EPSON LP-8200 表紙
  4
A3
  6

 40
5.873749732971191
 41
5.873747825622558
 42
5.873748779296875
 43
5.873748779296875
 44
419.9466552734374
 45
297.0106506347656
 46
0.0
 47
0.0
 48
0.0
 49
0.0
140
0.0
141
0.0
142
1.0
143
1.0
 70
   688
 72
     1
 73
     0
 74
     5
  7
A3-A3.ctb
 75
    16
147
1.0
148
0.0
149
0.0
100
AcDbLayout
  1
外形図
 70
     1
 71
     1
 10
-5.873749732971191
 20
-5.873747825622558
 11
414.0729055404663
 21
291.1369028091431
 12
0.0
 22
0.0
 32
0.0
 14
-8.800000000000011
 24
-10.80000000000001
 34
0.0
 15
417.0
 25
296.0
 35
0.0
146
0.0
 13
0.0
 23
0.0
 33
0.0
 16
1.0
 26
0.0
 36
0.0
 17
0.0
 27
1.0
 37
0.0
 76
     0
330
15
  0
MATERIAL
  5
4D
102
{ACAD_XDICTIONARY
360
4E3
102
}
102
{ACAD_REACTORS
330
D
102
}
330
D
100
AcDbMaterial
  1
ByBlock
 73
     1
 78
     1
172
     1
176
     1
270
     1
274
     1
  0
MATERIAL
  5
4C
102
{ACAD_XDICTIONARY
360
4E1
102
}
102
{ACAD_REACTORS
330
D
102
}
330
D
100
AcDbMaterial
  1
ByLayer
 73
     1
 78
     1
172
     1
176
     1
270
     1
274
     1
  0
MATERIAL
  5
C
102
{ACAD_XDICTIONARY
360
E
102
}
102
{ACAD_REACTORS
330
D
102
}
330
D
100
AcDbMaterial
  1
Global
 73
     1
 78
     1
172
     1
176
     1
270
     1
274
     1
  0
MLINESTYLE
  5
55
102
{ACAD_REACTORS
330
4A
102
}
330
4A
100
AcDbMlineStyle
  2
STANDARD
 70
     0
  3

 62
   256
 51
90.0
 52
90.0
 71
     2
 49
0.5
 62
   256
  6
BYLAYER
 49
-0.5
 62
   256
  6
BYLAYER
  0
ACDBPLACEHOLDER
  5
9
102
{ACAD_REACTORS
330
A
102
}
330
A
  0
SCALE
  5
5A
102
{ACAD_REACTORS
330
4F
102
}
330
4F
100
AcDbScale
 70
     0
300
1:1
140
1.0
141
1.0
290
     1
  0
SCALE
  5
5B
102
{ACAD_REACTORS
330
4F
102
}
330
4F
100
AcDbScale
 70
     0
300
1:2
140
1.0
141
2.0
290
     0
  0
SCALE
  5
5C
102
{ACAD_REACTORS
330
4F
102
}
330
4F
100
AcDbScale
 70
     0
300
1:3
140
1.0
141
3.0
290
     0
  0
SCALE
  5
5D
102
{ACAD_REACTORS
330
4F
102
}
330
4F
100
AcDbScale
 70
     0
300
1:4
140
1.0
141
4.0
290
     0
  0
SCALE
  5
5E
102
{ACAD_REACTORS
330
4F
102
}
330
4F
100
AcDbScale
 70
     0
300
1:5
140
1.0
141
5.0
290
     0
  0
SCALE
  5
5F
102
{ACAD_REACTORS
330
4F
102
}
330
4F
100
AcDbScale
 70
     0
300
1:6
140
1.0
141
6.0
290
     0
  0
SCALE
  5
60
102
{ACAD_REACTORS
330
4F
102
}
330
4F
100
AcDbScale
 70
     0
300
1:8
140
1.0
141
8.0
290
     0
  0
SCALE
  5
61
102
{ACAD_REACTORS
330
4F
102
}
330
4F
100
AcDbScale
 70
     0
300
1:10
140
1.0
141
10.0
290
     0
  0
SCALE
  5
62
102
{ACAD_REACTORS
330
4F
102
}
330
4F
100
AcDbScale
 70
     0
300
1:12
140
1.0
141
12.0
290
     0
  0
SCALE
  5
63
102
{ACAD_REACTORS
330
4F
102
}
330
4F
100
AcDbScale
 70
     0
300
2:1
140
2.0
141
1.0
290
     0
  0
SCALE
  5
64
102
{ACAD_REACTORS
330
4F
102
}
330
4F
100
AcDbScale
 70
     0
300
4:1
140
4.0
141
1.0
290
     0
  0
ACDBSECTIONVIEWSTYLE
  5
489
102
{ACAD_XDICTIONARY
360
48A
102
}
102
{ACAD_REACTORS
330
482
330
488
102
}
330
482
100
AcDbModelDocViewStyle
 70
     0
  3

290
     0
100
AcDbSectionViewStyle
 70
     0
 71
     0
 90
       78
 71
     1
340
468
 40
0.24
340
48F
340
48F
 40
0.24
300
I,O,Q,S,X,Z
 40
0.4
 90
        3
 40
0.12
 90
        1
 71
     2
340
46E
 90
       -1
340
46E
 90
       -1
 40
0.4
 40
0.0
 40
0.4
 71
     3
340
468
 40
0.24
 90
        1
 40
0.18
 90
        1
300
SECTION %<\AcVar ViewSectionStartId>%-%<\AcVar ViewSectionEndId>%
 71
     4
300
ANSI31
 40
1.0
 90
        0
290
     0
290
     0
 90
        6
 40
0.0
 40
1.570796326794896
 40
0.2617993877991494
 40
1.308996938995747
 40
-0.2617993877991494
 40
1.832595714594046
  0
ACDBSECTIONVIEWSTYLE
  5
4A5
102
{ACAD_XDICTIONARY
360
4A6
102
}
102
{ACAD_REACTORS
330
482
330
4A4
102
}
330
482
100
AcDbModelDocViewStyle
 70
     0
  3
Imperial24
290
     0
100
AcDbSectionViewStyle
 70
     0
 71
     0
 90
       78
 71
     1
340
29
 40
0.24
340
0
340
0
 40
0.24
300
I, O, Q, S, X, Z
 40
0.48
 90
        3
 40
0.18
 90
        1
 71
     2
340
10
 90
       25
340
10
 90
       50
 40
0.24
 40
0.0
 40
0.24
 71
     3
340
29
 40
0.24
 90
        1
 40
0.75
 90
        1
300
%<\AcVar ViewType \f "%tc1">% %<\AcVar ViewSectionStartId>%-%<\AcVar ViewSectionEndId>%\PSCALE %<\AcVar ViewScale \f "%sn">%
 71
     4
300
ANSI31
 40
1.0
 90
        0
290
     0
290
     0
 90
        6
 40
0.0
 40
1.570796326794896
 40
0.2617993877991494
 40
1.308996938995747
 40
-0.2617993877991494
 40
1.832595714594046
1001
ACAD
1000
AcRTDxfName
1000
ACDBSECTIONVIEWSTYLE
  0
ACDBSECTIONVIEWSTYLE
  5
494
102
{ACAD_XDICTIONARY
360
495
102
}
102
{ACAD_REACTORS
330
482
330
493
102
}
330
482
100
AcDbModelDocViewStyle
 70
     0
  3

290
     0
100
AcDbSectionViewStyle
 70
     0
 71
     0
 90
      110
 71
     1
340
472
 40
5.0
340
473
340
473
 40
5.0
300
I,O,Q,S,X,Z
 40
10.0
 90
        4
 40
2.5
 90
        0
 71
     2
340
126
 90
       -1
340
126
 90
       -1
 40
10.0
 40
5.0
 40
10.0
 71
     3
340
472
 40
5.0
 90
        1
 40
5.25
 90
        1
300
%<\AcVar ViewSectionStartId>%-%<\AcVar ViewSectionEndId>%
 71
     4
300
ANSI31
 40
1.0
 90
        0
290
     0
290
     0
 90
        6
 40
0.0
 40
1.570796326794896
 40
0.2617993877991494
 40
1.308996938995747
 40
-0.2617993877991494
 40
1.832595714594046
  0
ACDBSECTIONVIEWSTYLE
  5
49B
102
{ACAD_XDICTIONARY
360
49C
102
}
102
{ACAD_REACTORS
330
482
330
49A
102
}
330
482
100
AcDbModelDocViewStyle
 70
     0
  3

290
     0
100
AcDbSectionViewStyle
 70
     0
 71
     0
 90
      110
 71
     1
340
44D
 40
4.5
340
45B
340
45B
 40
4.5
300
I,O,Q,S,X,Z
 40
10.0
 90
        4
 40
2.25
 90
        0
 71
     2
340
126
 90
       -1
340
126
 90
       -1
 40
10.0
 40
5.0
 40
10.0
 71
     3
340
44D
 40
4.5
 90
        1
 40
4.5
 90
        1
300
%<\AcVar ViewSectionStartId>%-%<\AcVar ViewSectionEndId>%
 71
     4
300
ANSI31
 40
1.0
 90
        0
290
     0
290
     0
 90
        6
 40
0.0
 40
1.570796326794896
 40
0.2617993877991494
 40
1.308996938995747
 40
-0.2617993877991494
 40
1.832595714594046
  0
ACDBSECTIONVIEWSTYLE
  5
4A2
102
{ACAD_XDICTIONARY
360
4A3
102
}
102
{ACAD_REACTORS
330
482
330
4A1
102
}
330
482
100
AcDbModelDocViewStyle
 70
     0
  3
Metric50
290
     0
100
AcDbSectionViewStyle
 70
     0
 71
     0
 90
      102
 71
     1
340
29
 40
5.0
340
0
340
0
 40
5.0
300
I, O, Q, S, X, Z
 40
10.0
 90
        0
 40
2.5
 90
        0
 71
     2
340
10
 90
       25
340
10
 90
       50
 40
5.0
 40
2.5
 40
5.0
 71
     3
340
29
 40
5.0
 90
        0
 40
15.0
 90
        1
300
%<\AcVar ViewSectionStartId>%-%<\AcVar ViewSectionEndId>% (%<\AcVar ViewScale \f "%sn">%)
 71
     4
300
ANSI31
 40
1.0
 90
        0
290
     0
290
     0
 90
        6
 40
0.0
 40
1.570796326794896
 40
0.2617993877991494
 40
1.308996938995747
 40
-0.2617993877991494
 40
1.832595714594046
  0
TABLESTYLE
  5
56
102
{ACAD_XDICTIONARY
360
57
102
}
102
{ACAD_REACTORS
330
50
102
}
330
50
100
AcDbTableStyle
  3
Standard
 70
     0
 71
     0
 40
1.5
 41
1.5
280
     0
281
     0
  7
STANDARD
140
4.5
170
     2
 62
     0
 63
     7
283
     0
274
    -2
284
     1
 64
     0
275
    -2
285
     1
 65
     0
276
    -2
286
     1
 66
     0
277
    -2
287
     1
 67
     0
278
    -2
288
     1
 68
     0
279
    -2
289
     1
 69
     0
  7
STANDARD
140
6.0
170
     5
 62
     0
 63
     7
283
     0
274
    -2
284
     1
 64
     0
275
    -2
285
     1
 65
     0
276
    -2
286
     1
 66
     0
277
    -2
287
     1
 67
     0
278
    -2
288
     1
 68
     0
279
    -2
289
     1
 69
     0
  7
STANDARD
140
4.5
170
     5
 62
     0
 63
     7
283
     0
274
    -2
284
     1
 64
     0
275
    -2
285
     1
 65
     0
276
    -2
286
     1
 66
     0
277
    -2
287
     1
 67
     0
278
    -2
288
     1
 68
     0
279
    -2
289
     1
 69
     0
  0
VISUALSTYLE
  5
32
102
{ACAD_XDICTIONARY
360
4DF
102
}
102
{ACAD_REACTORS
330
33
102
}
330
33
100
AcDbVisualStyle
  2
2dWireframe
 70
     4
 71
     0
 72
     2
 73
     0
 90
        0
 40
-0.6
 41
-30.0
 62
     5
 63
     7
 74
     1
 91
        4
 64
     7
 65
   257
 75
     1
175
     1
 42
1.0
 92
        0
 66
   257
 43
1.0
 76
     1
 77
     6
 78
     2
 67
     7
 79
     5
170
     0
171
     0
290
     0
174
     0
 93
        1
 44
0.0
173
     0
291
     0
 45
0.0
1001
ACAD
1000
AcDbSavedByObjectVersion
1070
     0
  0
VISUALSTYLE
  5
59
102
{ACAD_XDICTIONARY
360
4E8
102
}
102
{ACAD_REACTORS
330
33
102
}
330
33
100
AcDbVisualStyle
  2
3dWireframe
 70
     5
 71
     0
 72
     2
 73
     0
 90
        0
 40
-0.6
 41
-30.0
 62
     5
 63
     7
 74
     1
 91
        4
 64
     7
 65
   257
 75
     1
175
     1
 42
1.0
 92
        0
 66
   257
 43
1.0
 76
     1
 77
     6
 78
     2
 67
     7
 79
     5
170
     0
171
     0
290
     0
174
     0
 93
        1
 44
0.0
173
     0
291
     0
 45
0.0
1001
ACAD
1000
AcDbSavedByObjectVersion
1070
     0
  0
VISUALSTYLE
  5
58
102
{ACAD_XDICTIONARY
360
4E6
102
}
102
{ACAD_REACTORS
330
33
102
}
330
33
100
AcDbVisualStyle
  2
Realistic
 70
     8
 71
     2
 72
     2
 73
     0
 90
        0
 40
-0.6
 41
-30.0
 62
     5
 63
     7
 74
     1
 91
        0
 64
     7
 65
   257
 75
     1
175
     1
 42
1.0
 92
        8
 66
     8
 43
1.0
 76
     1
 77
     6
 78
     2
 67
     7
 79
     5
170
     0
171
     0
290
     0
174
     0
 93
       13
 44
0.0
173
     0
291
     0
 45
0.0
1001
ACAD
1000
AcDbSavedByObjectVersion
1070
     0
  0
DICTIONARYVAR
  5
4C9
102
{ACAD_REACTORS
330
4C4
102
}
330
4C4
100
DictionaryVariables
280
     0
  1
1:1
  0
DICTIONARYVAR
  5
4C6
102
{ACAD_REACTORS
330
4C4
102
}
330
4C4
100
DictionaryVariables
280
     0
  1
STANDARD
  0
DICTIONARYVAR
  5
4C5
102
{ACAD_REACTORS
330
4C4
102
}
330
4C4
100
DictionaryVariables
280
     0
  1
STANDARD
  0
DICTIONARYVAR
  5
4C7
102
{ACAD_REACTORS
330
4C4
102
}
330
4C4
100
DictionaryVariables
280
     0
  1

  0
DICTIONARYVAR
  5
4C8
102
{ACAD_REACTORS
330
4C4
102
}
330
4C4
100
DictionaryVariables
280
     0
  1

  0
DICTIONARYVAR
  5
4CE
102
{ACAD_REACTORS
330
4C4
102
}
330
4C4
100
DictionaryVariables
280
     0
  1
2
  0
DICTIONARYVAR
  5
4CC
102
{ACAD_REACTORS
330
4C4
102
}
330
4C4
100
DictionaryVariables
280
     0
  1
1
  0
DICTIONARYVAR
  5
4CB
102
{ACAD_REACTORS
330
4C4
102
}
330
4C4
100
DictionaryVariables
280
     0
  1
0
  0
DICTIONARYVAR
  5
4CF
102
{ACAD_REACTORS
330
4C4
102
}
330
4C4
100
DictionaryVariables
280
     0
  1
1
  0
DICTIONARYVAR
  5
4CA
102
{ACAD_REACTORS
330
4C4
102
}
330
4C4
100
DictionaryVariables
280
     0
  1
127
  0
DICTIONARYVAR
  5
4CD
102
{ACAD_REACTORS
330
4C4
102
}
330
4C4
100
DictionaryVariables
280
     0
  1
0
  0
DICTIONARY
  5
4DB
102
{ACAD_REACTORS
330
4D9
102
}
330
4D9
100
AcDbDictionary
281
     1
  0
DICTIONARY
  5
4DA
102
{ACAD_REACTORS
330
4D9
102
}
330
4D9
100
AcDbDictionary
281
     1
  3
8796077341248
350
4D4
  3
8796077341264
350
4D5
  3
8796077341280
350
4D6
  3
8796077341296
350
4D7
  3
8796077341312
350
4D8
  0
DICTIONARY
  5
44B
102
{ACAD_REACTORS
330
44A
102
}
330
44A
100
AcDbDictionary
281
     1
  0
DICTIONARY
  5
442
102
{ACAD_REACTORS
330
43A
102
}
330
43A
100
AcDbDictionary
281
     1
  3
DWGSETTINGS
350
441
  3
FEM
350
443
  3
Shaft
350
444
  3
TRANSSETTINGS
350
445
  0
XRECORD
  5
1F
102
{ACAD_REACTORS
330
1E
102
}
330
1E
100
AcDbXrecord
280
     1
  1
A111-only
  1
A111*
  1
*
  1
*
 70
     0
  1
*
  1
*
  0
XRECORD
  5
20
102
{ACAD_REACTORS
330
1E
102
}
330
1E
100
AcDbXrecord
280
     1
  1
CENTER
  1
*
  1
*
  1
CENTER2
 70
     3
  1
*
  1
*
  0
XRECORD
  5
21
102
{ACAD_REACTORS
330
1E
102
}
330
1E
100
AcDbXrecord
280
     1
  1
E511-only
  1
E511*
  1
*
  1
*
 70
     0
  1
*
  1
*
  0
XRECORD
  5
22
102
{ACAD_REACTORS
330
1E
102
}
330
1E
100
AcDbXrecord
280
     1
  1
ganci
  1
anello
  1
*
  1
*
 70
     0
  1
*
  1
*
  0
XRECORD
  5
23
102
{ACAD_REACTORS
330
1E
102
}
330
1E
100
AcDbXrecord
280
     1
  1
kiseki
  1
kiseki*
  1
*
  1
*
 70
     0
  1
*
  1
*
  0
XRECORD
  5
24
102
{ACAD_REACTORS
330
1E
102
}
330
1E
100
AcDbXrecord
280
     1
  1
OFF AND FROZEN
  1
*
  1
*
  1
*
 70
     7
  1
*
  1
*
  0
XRECORD
  5
25
102
{ACAD_REACTORS
330
1E
102
}
330
1E
100
AcDbXrecord
280
     1
  1
TTB-only
  1
T*
  1
*
  1
*
 70
     0
  1
*
  1
*
  0
XRECORD
  5
26
102
{ACAD_REACTORS
330
1E
102
}
330
1E
100
AcDbXrecord
280
     1
  1
ロック解除
  1
*
  1
*
  1
*
 70
   768
  1
*
  1
*
  0
DICTIONARY
  5
463
330
462
100
AcDbDictionary
280
     1
281
     1
  3
ACAD_FIELD
360
464
  3
ACAD_XREC_ROUNDTRIP
360
4EA
  0
DICTIONARY
  5
47F
330
47E
100
AcDbDictionary
280
     1
281
     1
  3
ACAD_XREC_ROUNDTRIP
360
4EE
  0
DICTIONARY
  5
471
330
470
100
AcDbDictionary
280
     1
281
     1
  3
ACAD_XREC_ROUNDTRIP
360
4EB
  0
DICTIONARY
  5
479
330
478
100
AcDbDictionary
280
     1
281
     1
  3
ACAD_XREC_ROUNDTRIP
360
4EC
  0
DICTIONARY
  5
47C
330
47B
100
AcDbDictionary
280
     1
281
     1
  3
ACAD_XREC_ROUNDTRIP
360
4ED
  0
DICTIONARY
  5
14
330
12
100
AcDbDictionary
280
     1
281
     1
  3
ACAD_XREC_ROUNDTRIP
360
4DD
  0
DICTIONARY
  5
1B
330
1A
100
AcDbDictionary
280
     1
281
     1
  3
ACAD_XREC_ROUNDTRIP
360
4DE
  0
DICTIONARY
  5
4E3
330
4D
100
AcDbDictionary
280
     1
281
     1
  3
ACAD_XREC_ROUNDTRIP
360
4E4
  0
DICTIONARY
  5
4E1
330
4C
100
AcDbDictionary
280
     1
281
     1
  3
ACAD_XREC_ROUNDTRIP
360
4E2
  0
DICTIONARY
  5
E
330
C
100
AcDbDictionary
280
     1
281
     1
  3
ACAD_XREC_ROUNDTRIP
360
4DC
  3
FBXASSET
360
F
  0
DICTIONARY
  5
48A
330
489
100
AcDbDictionary
280
     1
281
     1
  3
ACAD_FIELD
360
48B
  3
ACAD_XREC_ROUNDTRIP
360
4EF
  0
DICTIONARY
  5
4A6
330
4A5
100
AcDbDictionary
280
     1
281
     1
  3
ACAD_XREC_ROUNDTRIP
360
4F3
  0
DICTIONARY
  5
495
330
494
100
AcDbDictionary
280
     1
281
     1
  3
ACAD_FIELD
360
496
  3
ACAD_XREC_ROUNDTRIP
360
4F0
  0
DICTIONARY
  5
49C
330
49B
100
AcDbDictionary
280
     1
281
     1
  3
ACAD_FIELD
360
49D
  3
ACAD_XREC_ROUNDTRIP
360
4F1
  0
DICTIONARY
  5
4A3
330
4A2
100
AcDbDictionary
280
     1
281
     1
  3
ACAD_XREC_ROUNDTRIP
360
4F2
  0
DICTIONARY
  5
57
330
56
100
AcDbDictionary
280
     1
281
     1
  3
ACAD_ROUNDTRIP_2008_TABLESTYLE_CELLSTYLEMAP
360
4D0
  3
ACAD_XREC_ROUNDTRIP
360
4E5
  0
DICTIONARY
  5
4DF
330
32
100
AcDbDictionary
280
     1
281
     1
  3
ACAD_XREC_ROUNDTRIP
360
4E0
  0
DICTIONARY
  5
4E8
330
59
100
AcDbDictionary
280
     1
281
     1
  3
ACAD_XREC_ROUNDTRIP
360
4E9
  0
DICTIONARY
  5
4E6
330
58
100
AcDbDictionary
280
     1
281
     1
  3
ACAD_XREC_ROUNDTRIP
360
4E7
  0
XRECORD
  5
4D4
102
{ACAD_REACTORS
330
4DA
102
}
330
4DA
100
AcDbXrecord
280
     1
  1
AcDb_Thumbnail_Schema
102
{ATTRRECORD
341
4D5
  2
AcDbDs::TreatedAsObjectData
280
     1
291
     1
102
ATTRRECORD}
102
{ATTRRECORD
341
4D6
  2
AcDbDs::Legacy
280
     1
291
     1
102
ATTRRECORD}
  2
AcDbDs::ID
280
    10
 91
        8
102
{ATTRRECORD
341
4D7
  2
AcDs:Indexable
280
     1
291
     1
102
ATTRRECORD}
102
{ATTRRECORD
341
4D8
  2
AcDbDs::HandleAttribute
280
     7
282
     1
102
ATTRRECORD}
  2
Thumbnail_Data
280
    15
 91
        0
  0
XRECORD
  5
4D5
102
{ACAD_REACTORS
330
4DA
102
}
330
4DA
100
AcDbXrecord
280
     1
  1
AcDbDs::TreatedAsObjectDataSchema
  2
AcDbDs::TreatedAsObjectData
280
     1
 91
        0
  0
XRECORD
  5
4D6
102
{ACAD_REACTORS
330
4DA
102
}
330
4DA
100
AcDbXrecord
280
     1
  1
AcDbDs::LegacySchema
  2
AcDbDs::Legacy
280
     1
 91
        0
  0
XRECORD
  5
4D7
102
{ACAD_REACTORS
330
4DA
102
}
330
4DA
100
AcDbXrecord
280
     1
  1
AcDbDs::IndexedPropertySchema
  2
AcDs:Indexable
280
     1
 91
        0
  0
XRECORD
  5
4D8
102
{ACAD_REACTORS
330
4DA
102
}
330
4DA
100
AcDbXrecord
280
     1
  1
AcDbDs::HandleAttributeSchema
  2
AcDbDs::HandleAttribute
280
     7
 91
        1
284
     1
  0
DICTIONARY
  5
464
102
{ACAD_REACTORS
330
463
102
}
330
463
100
AcDbDictionary
280
     1
281
     1
  3
TEXT
360
465
  0
XRECORD
  5
4EA
102
{ACAD_REACTORS
330
463
102
}
330
463
100
AcDbXrecord
280
     1
102
DISPLAYNAME
  1
ASME Y14.35 - 1987(1)
102
FLAGS
 90
        0
  0
XRECORD
  5
4EE
102
{ACAD_REACTORS
330
47F
102
}
330
47F
100
AcDbXrecord
280
     1
102
DISPLAYNAME
  1
Imperial24
102
FLAGS
 90
        0
  0
XRECORD
  5
4EB
102
{ACAD_REACTORS
330
471
102
}
330
471
100
AcDbXrecord
280
     1
102
DISPLAYNAME
  1
ISO 128-34:2001(1)
102
FLAGS
 90
        0
  0
XRECORD
  5
4EC
102
{ACAD_REACTORS
330
479
102
}
330
479
100
AcDbXrecord
280
     1
102
DISPLAYNAME
  1
JIS Z 8316 : 1999(1)
102
FLAGS
 90
        0
  0
XRECORD
  5
4ED
102
{ACAD_REACTORS
330
47C
102
}
330
47C
100
AcDbXrecord
280
     1
102
DISPLAYNAME
  1
Metric50
102
FLAGS
 90
        0
  0
XRECORD
  5
4DD
102
{ACAD_REACTORS
330
14
102
}
330
14
100
AcDbXrecord
280
     1
102
SHADEPLOT
 70
     0
102
SHADEPLOTRESLEVEL
 70
     2
102
SHADEPLOTCUSTOMDPI
 70
   300
  0
XRECORD
  5
4DE
102
{ACAD_REACTORS
330
1B
102
}
330
1B
100
AcDbXrecord
280
     1
102
SHADEPLOT
 70
     0
102
SHADEPLOTRESLEVEL
 70
     2
102
SHADEPLOTCUSTOMDPI
 70
   300
  0
XRECORD
  5
4E4
102
{ACAD_REACTORS
330
4E3
102
}
330
4E3
100
AcDbXrecord
280
     1
102
MATERIAL
148
0.0
149
0.0
149
0.0
 93
        0
 94
       63
282
     0
 72
     1
 77
     1
171
     1
175
     1
179
     1
273
     0
  0
XRECORD
  5
4E2
102
{ACAD_REACTORS
330
4E1
102
}
330
4E1
100
AcDbXrecord
280
     1
102
MATERIAL
148
0.0
149
0.0
149
0.0
 93
        0
 94
       63
282
     0
 72
     1
 77
     1
171
     1
175
     1
179
     1
273
     0
  0
XRECORD
  5
4DC
102
{ACAD_REACTORS
330
E
102
}
330
E
100
AcDbXrecord
280
     1
102
MATERIAL
148
0.0
149
0.0
149
0.0
 93
        0
 94
       63
282
     0
 72
     1
 77
     1
171
     1
175
     1
179
     1
273
     0
  0
XRECORD
  5
F
102
{ACAD_REACTORS
330
E
102
}
330
E
100
AcDbXrecord
280
     1
 70
     1
 90
2070111275
 71
     1
  1
B66F9B0A-8A53-47FA-8443-7D13C39C02CD
311
504B0304140006080800CE6E3B4697BFC063DB000000200100004F00000045343531374143392D434443302D343331362D423636342D3332423943424635323041382F4173736574446174612F446566696E6974696F6E4974657261746F7250726F706572746965732E62696E454E3D4FC33010350C200606FE41D5DD38B6
311
9B26446D51691A26586062A9AECEB54472922A4E244646FE35BD13453DE9DDBBCF77F72384F83D1985E282F04DFE96F8191BEC2AF7E63EB10671C515DF6EC15F9F7B9714729AE30E06DFF3D64B151C7A0F0DB643B83B8F8E6AE8490EFC3D2FDD10FE0B8115F67FC7F8FE2B815F6286F2903D4208D8CFD56EFBA5129B2FED3A
311
B6D2A6452E27464F659A1453F9B07E5AE978B94A0B9DA80E433B740E83322ADA9C943787665F958B595FD5386AA0C6F9D875483F95E38589742C232D4DF2AE6D164F32937ECC144F1E01504B0304140006080800CE6E3B46CB7837E1E9000000300200004500000045343531374143392D434443302D343331362D42363634
311
2D3332423943424635323041382F4173736574446174612F496E7374616E636550726F706572746965732E62696EEB606060F80F0540260323103700495E20ED9E9A975A94991C9C9C919A9BA8021470323373B3743270D4B5703435D635317703B24C4C8C75CD5D0C8D9D8D2D9D0D8C9C5DD8111A415A8C0D4D5C5C8D4C2D
311
754D410A4DCC8C0C759DDC9C5C740DCD8D0D9CCD9C9D2D1D5D2D81CAC0F63268C6F41FFAAA71C51E483301C51A8018C607D3403E107CB087A8666010706010000B81091507041B2B0BA81102E00CACCA808270051F9881BC0620866A7D00A57980429800148E0819B821180A53763A6088A108606A0519AD81A4E6833D0B90
311
078A2D3E200E2E4F2C49CED0752A4ACC4B494D01C9D00A0000504B0304140006080800CE6E3B4628BB58AF800100009E0500003D00000045343531374143392D434443302D343331362D423636342D3332423943424635323041382F536368656D61732F436F6D6D6F6E536368656D612E786D6CBD544D4FC23018BEFB2B96
311
DE15493C78601010A34B880709DEDFB52FD0D8B54BD70DF6EFED3AC0B12E6442E2716BFB3CEFF3D18E26FB440405EA8C2B1992E1C323095052C5B8DC842437EBFB673219DF8DA659866649B798C078B48AE6410122242F2A4994AC7F93815DF85C049C8564CA0A901499DD886B2EB9B1E02448F358701A9235880C49A01198
311
92A20C89D1B9FD768815CAD268CB5E0355B40B1E47F3E37A2020464BED06AA57CE8FCC20C3C3446D46761A2632A8C1283D07031EFF2AE7CCB1BFEEE916E406DFAC8E36FFD99A9D60A6944090EEDC3B670C7DC13DE86B6B2C5C240D6E503BB85ACD579D513F1B9F9A69DC9CC22AFA80C426D40AF0B21EA168559156B6276F0F
311
726A6BFF04DCD513A87A62CAD41FB24FCB2858B3952E3D852084DA25B9303C15687973CC8E8AAE11DF2836C38C6A9E765E8C1BA1BFB1DC29CDFE518C8B5A7655A4ED7E77291ABEB80DBD82EC866ADE1B8D05AF9E35CF09D7A061F38A986D9EC412B8F0F65E5D81534D9B231D1E5A8FE577A241F3A5FD01504B030414000608
311
0800CE6E3B462CCEBD668A040000E01200003E00000045343531374143392D434443302D343331362D423636342D3332423943424635323041382F536368656D61732F47656E65726963536368656D612E786D6CD5586D6FDB380CFE7EBF42F0F7A649B70E1B90744856B4970F450FCD7A5F05459613EDE4174872DADCAF3F
311
522F8ED3B88D2F1D06AC4050DBA2493EE4438AF2F8EB73AEC8466823CB62928C06C384888297A92C5693A4B6D9D9E7E4EBD51FE3A931C22EF85AE4EC6AFC38BF261BA626C9AD288496DC3F4FCEAFC63366845F7A10452AF41DB320C0D44EC26EAB20918735565582695670811A6A49643A49A6E9069FA4604A64B29016DC4B
311
48552F95E4932463CA888468C1D2B250DB4962750DF7CE273069CE8363F1FF4EDB00E0A21999574AE4A2B00C353B93F3BD4777B8A61ED8F604ABFEDD79CE56A2B7BDFBDBC50996E0ADDE16FED26223C5D30956C29BDF4A55EA686E5E58B112DA45CE67F76F4FA27EFA3FB672FD7372FC388FAECDCA5209E693CAD167BADCD2
311
72F943701B3812F8A3D852008B1D2E32DB927B2F833C6EA95879925356D254582695095A3CE982924720BE5774A3CB9CDCDB350427D2DF20DA1B5532EBE2D5D6288D75D4F7E4FD9890A0EF8E3D93EBB8F8BA4758158EF6FB90A6F9520281C93DE7AAC6D24607DA296BB96018123F821A7D6A5C5884050C475DA4865442732C
311
8B95684A50165CBB3A32F25F783A4A480ED59AD7F924B968AEA50131F46303223E6A397B0E52976030DC1DCA81D7E7C1EDEEA42C19FF27635C505E2BD5198A599020DF50A2330FCB3AAF28CB0124108429553EF1B228802E2265D8F7CC2401042B155BCC7070F1E5C55F13B4A9577362CCCE46C32174E010C3C378C44841A4
311
BDA00FE3A12006CE11EE6AEC59894D3526DDE1CD59D503ECC324017F8061B7F162162FA62EDD81AE3308617770796DCBDAD2B2625C5AE8A63DE20B2C8AA5E95E76E5730823955956E33E705425A2187C185D36489A1B44D3DCEC2172F6BA2105C3546287A7194B2331768EBBE64F6E70A9930ABE0ADEA89E9E2C38523B8102
311
87AD67A54A039C1606EAFE68F8304610BB9093DBDDABC0B2AE4E290DCDA15376D7E39F72B556F0B32EAB5D3D498B4C41ABADEC3A1434C422D87E8025A84BDCB2B1417ED750FAE4DA8976863974C577C7F902D3F156AD354DEA3540DE6BEAE2BEA52F7A2EB4CA43802ECE5BF2CE2EDC9347179FFB023CE412E60BE16DA0BE29
311
B374988A553F561DC04615DD35F7D2C8979F60E5955CE93DF29DED8AFA1EE6642D53418086C03C47C377910F75F7E8F5EF665F70B60FFB22AEDF897D119E8423C773E819A3C1E55E550599EE6EDCA34D0C86FD72057DF2CD46F16A470682471C164E4346D5306BF12D7D12D82CFF673D41636C347443FEB51B50D72EA171A8
311
E4A58623A4A16E0FA2B8B10A0D23268D87C33896EE8FB73305A74BF224EDBADFA0BD674AB354D63DB7BD5D83426761C077DE767728235446A552754EB93B755891C3C4CC6CADE37CF0E912A7BB38DBA010F9DE1282EDF470CA69A9CDA482E334C4A6EA4107987980B17E72F31730EBF88BBD39E7C629F56797A3C0009C2C5A
311
E7951D9A05A02773440F02EEB4DE396A3B6A570C72CCFBCD823B0B8ED3F1D5CEDDFED772FA70236C83FB7D86C385D570B87107535572A60A96035F8F7C6A7192F13007246BBE0521855E6AC46F3E27689CEE7D186A6FD679D98CDCAD13333E04EBE7ED6F55FF01504B0304140006080800CE6E3B466180134D5F0100006B03
311
00004500000045343531374143392D434443302D343331362D423636342D3332423943424635323041382F536368656D61732F52656E6465724D6174657269616C536368656D612E786D6CA5934D6FC2300C86EFFB1551EEE343DBA41D1A103009551ADAD40EAE28A4A68D9426284961FCFBE5A340113B2071746D3F765EBF
311
4DC6BFB5407BD0862B49F0B037C0082453059725C18DDD3EBFE3F1E829991803366715D474942CD30FB4A782E00C64017A412D684E454CE3FE28995203B162A6EA5AC94B66997D225E109CD63B0135484BAD1B3C07E9080CA35DB3119C11BCA5C200461A68A1A438126C75E3E230D40FF81FB3F03C91D1E3A3A0AF79FE28E2
311
5BC39EC3E17E4C2A2D94A0833A51AF55BCCA7D88572FCBAC529C4140B020FC3AAFA886621DCED7EAD7664CC86024E806DC297DA1BB393E4156543457A4537DB8817349A70F8ACBF09B3EEE2CB2F33E91B65D60786E4E3B39B77E3FEEEF5650424525DA657FB8B46BE6BF064646F0A0F7327C0BC1BC1B4CBBC1C419FA3CCB23
311
500007872A2580CAAE5461865565294E4EDB4617B62FF579DF9A5B2F54E834076A597573A020912FED777F9B3F504B0304140006080800CE6E3B4653E440054F000000570000004700000045343531374143392D434443302D343331362D423636342D3332423943424635323041382F4173736574446174612F4173736574
311
5461626C654F66436F6E74656E74732E62696E5361606070323373B3743270D4B5703435D635317703B24C4C8C75CD5D0C8D9D8D2D9D0D8C9C5D8480EA72134B528B321373120B0A52138B12F39253818260C00B24DD53F380B2C9C1C919A9B98900504B0304140006080800CE6E3B46F86583405800000068000000450000
311
0045343531374143392D434443302D343331362D423636342D3332423943424635323041382F4173736574446174612F53747265616D56657273696F6E5461626C652E696E66558CBD0A80300C06F73E4B117FB66E451741D041DC5BF98480A492E4FDD18EAEC7DD4555D89EF28DF51A0B1BD8340C4DE7DD848B988C0ACF06
311
49566493F2408C508DDEBB99D5129FF8F1AF8CF5B9503E20FAE5A16B5AF702504B0304140006080800CE6E3B461643B1C8350100009A0400003600000045343531374143392D434443302D343331362D423636342D3332423943424635323041382F4173736574446174612F636E782E786D6CCD94314FC3301085FF4AE43D
311
7612A8A82AC71582A51348540C6C57E752AC3A76645F10FC7BEC3603A888A943D7F3BBF3F327BF93EBCFC1161F18A2F1AE6535AF58814EFBCEB87DCB26EACB252BD64A06EFE9878C150E066C592E3325F7C14FE35CEAB087C9E6AA35EE3017EF6344DAC2CEE253FFE01DA1A3C80A6D21C69645FD8E037098C877180FBC0302
311
5EF380D14F41639A4466C079920E08841D534D552FCAAA2E9BBB6D7DB35ADCAE9AE59B1459A9E4CE7B3BEB4DBA2CF8B1D0A75B99AAA4C8C74A4EC1CC9AFC16A6FEF2C877C64991944A460A89C9DC415F63EA8071B446032574C26B422A93086190E22456526406BF483C626F9CC92D9B640CC887E7640F0319BC3A22FF79BD
311
3C998D8B044EE3F5F2387778790A2FC71FF47A0AE43131D796937387DCB8FE022911C735924293B78AFA06504B0304140006080800CE6E3B468EE3DD95090100004F0300003400000045343531374143392D434443302D343331362D423636342D3332423943424635323041382F536368656D61732F636E782E786D6CCD93
311
BD4E042114855F65423F3033BA71B361D8C2C2CA46ADEC10EEAE64813BE1C7E8DB0B23C56E62A7C57670F842CE395CF8FED3D9EE034234E86732D28174E0156AE38F33C9E9D06F49B7173C20A6338C745E3A98499589E0C7807969928683CCB6AAD6F85313EFD139F4CFEA1D9C249DB232C699C4754B654EA8219EA89649D2
311
9106889883827243320EDA0D2A804CA089988671D30F633FDDBD8C37BBCDED6EDABE725649C1DF106DE38D4F1070E91496852F7606CEEAB1E03998C6D40C449C7BA3A50DCE0A21784CA174D0C8F4B514522E8B354AA652155BC11F467056A35E047E000FC1A8EB4C7C61EEDF223F81D7101ECB2B0523ED7526FFCDE3DF0A60
311
EBEC9711A85F417C03504B0304140006080800CE6E3B46410A3D5871000000A40000002C00000045343531374143392D434443302D343331362D423636342D3332423943424635323041382F636E782E786D6C55CC4D0E82301086E1AB34B31774E7A22D31F1069E60020334B633A63FC6E34B0909B07DDE2F9FEE7EC1AB2F
311
C5E4840DDC9A2B28E25E06C7938192C7CB1D54677514C9871928C640062A83D55394F2D968A0118BAFEA1DBF377CA444F98919176EAB9FEAAB9F2960DA5BBB1E2ED3FA6FFF504B0304140006080800CE6E3B46811577087F000000A300000007000000636E782E786D6C4D8CD10E822018465F85FDF794289A6E8013AAF770
311
898E89D0485A8F1F342FBAFAB6B3EF1CD67F368BDE3ABC8C771CC8A900A4DDC34FC62D1CE23EE316502F58F07EFFBB0172E3A639640C822DC1C7E781263D8FD1666A8D5B0F78A335B90CAAC3EAAA0A4C2BD260D9341457A5EC94BCD76531B4C9386725CDAF9736E7C517504B0304140006080800CE6E3B4616E99B5DA60000
311
0035010000130000005B436F6E74656E745F54797065735D2E786D6C9590410E82301045AFD2740F4517C6180A0BF5065E60AC53688469D30E066F6F91AD9AB89CF9FFFD3F99BA9DC7413C3026E749CB4D59498164FCCD51A7E5C4B6D84BD136F5E5193089ECA5A465CF1C0E4A25D3E308A9F401292BD6C711388FB15301CC
311
1D3A54DBAADA29E38991B8E0254336F5092D4C038BF39CD76B6FC6A538AEBEA54A4B08617006389FA516557DE4AE8E7E70DE30729138228C5F021CD93F02D4FB0DCD0B504B0304140006080800CE6E3B463DEE336E64000000790000001B0000006175746F6465736B2D64657369676E2D7061636B6167652E786D6C35CBC1
311
0E83200C00D05F21DCA56CA76D41FC96062B120735B69A7DBE268BB7777961F8D5AF396893C2ADB70FE7ADA196782C2DF776D7A97B5933C430F15651E5469C55D70F80A4992A3ADC954792C525AE70A1E4D6AD9816CC044FEFDF01FE3FDE907802504B0304140006080800CE6E3B46A4ECBB2AF90000009601000037000000
311
45343531374143392D434443302D343331362D423636342D3332423943424635323041382F4173736574446174612F636F72652E786D6C8550416E833010FC0ADABB21365048641C51685ED0536F96ED102BC146D8AEFAFCDA814AEDA9A75DCDCECCEE0E3D7FCD8FEC53AD4E5BD301CE0F902923ACD466EA20F82B6A213B33
311
BA5AEB7FD120337C561D2418189D561B961D12D67865126AAC543BC89D531E32F1884D074EDCD4CC731E7C64B87BBE7071E793CA71BEF1180D41CB5DAA6574D357AD5660E55857E35013F4D65E6A545D708FFA63F38A86BA27CDD01E9BF165A0451233EAF5FCB35DAC8A7B25819103AED10123D2BCE3F2545727D27ED02231
311
19757E8D3FEF4BD377C0FA74F5C83DA7C536FDE31A16F9BF6BD0C6976477DD140E188E473E078C1629A5589E11C69A1265DF504B0304140006080800CE6E3B46826E300EF8000000940100003500000045343531374143392D434443302D343331362D423636342D3332423943424635323041382F536368656D61732F636F
311
72652E786D6C8550CB6E833010FC15B47703065C48641C51687EA03DF5668143AD041BF951F5F36B0395DA534FBB9A9D99DD1D7AF95A1EC9A730566AD5024E7348841AF524D5DC827737D4407261D468ED7ED120517C112D4418189D8DF6EB018D5A39A122AAF4240E905B2B1C24E323342DD8F1432C3CE5DE0586BDA72B1F
311
EF7C16294E771EA3DECBE990CA29B8C99B14065839906AE849815E9A2B41D51577A83BD5CFA8275D51F7CDA91E9E7A9A4531A34E2E3FDB4723B81313B022C704E51815F51B2ECFA43A17CD3BCD229351EB4CF8F9581ABF03F6BADD6969B6CFFE78FA75FADFD34BE5CAE2F0DC1516180E276E0346B39851285B80A1C63CD937
311
504B0304140006080800CE6E3B4662A3A55802010000D70100002D00000045343531374143392D434443302D343331362D423636342D3332423943424635323041382F636F72652E786D6C9591CB52C42010457F25D57B9290D73C8A303589FA05AEDC61E8C95033815400CBCF174C2C75A72BA8CBB9DDDC6E767A9FEEC91B
311
2E5619DD024D7348500F462A3DB6E0DD85EC213971B618E37E60906831610B5106CEC6C5F8799306A31DEAA86A23711385B5E82019EEE1D2821DAE3889547817087B4B6731DCC488294D578E33A7A62FEBB0A07028811739AD494E49B17BA6E5B1AE8EC5FE856591E4CC2BEDCA626B86D32BCAC4CC2E44025EB36C7D0D9457
311
7263940C7F5417850BF0C7AAA6BB737F20FD439F93AAA40DE99AA62265D11DFAEEA92EF2F33E140966CEAC5BC264B62271067FB5AFC65FC9FC2CFF996C7558E0F43B5416C7CC59F6B98370C695F00F504B0304140006080800CE6E3B46D5D7131C09010000B201000008000000636F72652E786D6C8D50CB6EC32010FC15B4
311
776CE347ED4498C8759A2FE8A9376A888B628305386AFFBE10BB527BEB69D1CCECCE30F4F4394FE82EAD5346B740920C90D483114A8F2DACFE8A1B402746AD31FE970C90E6B36C21C2C0E868CDBAECD060B4973AA2DA08B983DC39E9010D5378B4E0860F39F384AF3E28DC2D59F870E3A34C48B2E918F56AFE591DACE45E0A
311
6079462A9C119CD7AFA43856E5316FDE681A958CAEAB12BB9512C15D5D95B4C08A73559EFB2AC72FCDA5C2E58574B83BD4CFB8AFBABCEE9B437D7EEA691A971975DE863FEF47424E8F1CBF475F9A6E14A3EFC64CBB208412C8E8E90B5846D348FC09BD2EE21FA195F645BE1FDC361C3012023D88601C1B0CE3516F98B16DF6
311
0D504B01021400140006080800CE6E3B4697BFC063DB000000200100004F000000000000000000000000000000000045343531374143392D434443302D343331362D423636342D3332423943424635323041382F4173736574446174612F446566696E6974696F6E4974657261746F7250726F706572746965732E62696E50
311
4B01021400140006080800CE6E3B46CB7837E1E90000003002000045000000000000000000000000004801000045343531374143392D434443302D343331362D423636342D3332423943424635323041382F4173736574446174612F496E7374616E636550726F706572746965732E62696E504B01021400140006080800CE
311
6E3B4628BB58AF800100009E0500003D000000000000000000000000009402000045343531374143392D434443302D343331362D423636342D3332423943424635323041382F536368656D61732F436F6D6D6F6E536368656D612E786D6C504B01021400140006080800CE6E3B462CCEBD668A040000E01200003E00000000
311
0000000000000000006F04000045343531374143392D434443302D343331362D423636342D3332423943424635323041382F536368656D61732F47656E65726963536368656D612E786D6C504B01021400140006080800CE6E3B466180134D5F0100006B030000450000000000000000000000000055090000453435313741
311
43392D434443302D343331362D423636342D3332423943424635323041382F536368656D61732F52656E6465724D6174657269616C536368656D612E786D6C504B01021400140006080800CE6E3B4653E440054F000000570000004700000000000000000000000000170B000045343531374143392D434443302D34333136
311
2D423636342D3332423943424635323041382F4173736574446174612F41737365745461626C654F66436F6E74656E74732E62696E504B01021400140006080800CE6E3B46F865834058000000680000004500000000000000000000000000CB0B000045343531374143392D434443302D343331362D423636342D33324239
311
43424635323041382F4173736574446174612F53747265616D56657273696F6E5461626C652E696E66504B01021400140006080800CE6E3B461643B1C8350100009A0400003600000000000000000000000000860C000045343531374143392D434443302D343331362D423636342D3332423943424635323041382F417373
311
6574446174612F636E782E786D6C504B01021400140006080800CE6E3B468EE3DD95090100004F03000034000000000000000000000000000F0E000045343531374143392D434443302D343331362D423636342D3332423943424635323041382F536368656D61732F636E782E786D6C504B01021400140006080800CE6E3B
311
46410A3D5871000000A40000002C000000000000000000000000006A0F000045343531374143392D434443302D343331362D423636342D3332423943424635323041382F636E782E786D6C504B01021400140006080800CE6E3B46811577087F000000A3000000070000000000000000000000000025100000636E782E786D
311
6C504B01021400140006080800CE6E3B4616E99B5DA6000000350100001300000000000000000000000000C91000005B436F6E74656E745F54797065735D2E786D6C504B01021400140006080800CE6E3B463DEE336E64000000790000001B00000000000000000000000000A01100006175746F6465736B2D64657369676E
311
2D7061636B6167652E786D6C504B01021400140006080800CE6E3B46A4ECBB2AF90000009601000037000000000000000000000000003D12000045343531374143392D434443302D343331362D423636342D3332423943424635323041382F4173736574446174612F636F72652E786D6C504B01021400140006080800CE6E
311
3B46826E300EF80000009401000035000000000000000000000000008B13000045343531374143392D434443302D343331362D423636342D3332423943424635323041382F536368656D61732F636F72652E786D6C504B01021400140006080800CE6E3B4662A3A55802010000D70100002D00000000000000000000000000
311
D614000045343531374143392D434443302D343331362D423636342D3332423943424635323041382F636F72652E786D6C504B01021400140006080800CE6E3B46D5D7131C09010000B2010000080000000000000000000000000023160000636F72652E786D6C504B050600000000110011005A060000521700000000
310
504B0304140006080800CE6E3B46000000000000000000000000370000006662782F38353536373936362D393541302D344333322D393545442D3543353231434343343033362F617474726962757465732E62696E504B0304140006080800CE6E3B46000000000000000000000000350000006662782F3835353637393636
310
2D393541302D344333322D393545442D3543353231434343343033362F76657274696365732E62696E504B0304140006080800CE6E3B46F270F1330600000004000000360000006662782F38353536373936362D393541302D344333322D393545442D3543353231434343343033362F747269616E676C65732E62696E6366
310
60600000504B0304140006080800CE6E3B4651464CB48900000043010000360000006662782F38353536373936362D393541302D344333322D393545442D3543353231434343343033362F6469726563746F72792E786D6C9D8F310EC2300C45AF127987122606C71DD918B841D4B851A43646695A717C52A85029031293A5
310
A76FBF6FACEF7DA7264E43906840EF0FA03836E242F406C6DCEE4EA06AC22492573150D1F66C60C640E8938CB705396EEDD86DE9B5042FE27813D640EA63BB001C722AF6E55CB61E4863F58284D5D3F53DD715CE1C3985E63FD7F1B7EBDD617E9F1E504B0304140006080800CE6E3B4635F9357137070000201C0000340000
310
006662782F38353536373936362D393541302D344333322D393545442D3543353231434343343033362F6F626A656374732E786D6CDD596D6FE23810FE2B56EECBDD07F24280C22A65456159A15577578BF674DF22130CF5356FB29396DEAFBFB163872404487BBBD2EA5AA94D5D673CF3CCCC33E3C17B7F8842F44418A749
310
7C6B38A66D201207C996C6FB5B23CF76BDB181DE4F91C79224ABEC33508C23726B886563EAED5992A76A694B76380F9BABCBBBBF100F484C0C148498F35B83070F24C226CEB3644BF8A3B9C51936F7BB83E998C5C6BAD83DC3E943E3A814331267A02AACC7204569E0D4FF0493ACA967890DB56DFD6EDBDC0BDB2C69785D51
310
1AF30CC7C189560D39FD6E5AB9CE60F1A13F9CF4868381DB1B8CFA4EEF6E79B7E83937AE3D1FCDE793D9878981A6DE2649C2D2012989B7E0C51763EA7896F84F69BE42A14DEF208963122834DB366C89924B096F625203D691A6551C52D85A59703B1A7F665B27506A2AD5D0D6C6E9DFD5E84D367F0308BC4B94324E4494F3
310
8C81AF15F6453ED89E55ACD6FC42398A704618C5210AE98661060E82AD85836A6244B60851486026BDA8E5557585C0BE9E4B6D5AEEF23014F96B4C65A6F9908F24E35233FA0F6147EDABA7814E606D4EE36CAC8CCD5E521031F12CB958FCCFEDAB7F1640A25D88F7102D60A6D8E4F61B78CD0517AC16C6F4D37273580B7E68
310
3F3C65494A5826224F26B3CA3BEDC14A6841F07500A5C0B5EEBB232ADF00FACF807CA90BF2C0738C1E068781B69DE198EF12168177908D7A36FCB091783C79F2ACF2E5294235AE3C8729A4ED0FC2B46646EDEC0AA453EF09823E61AE326E1DE01062FA9EC622CF21505098C012F0FD6E7330A62B20535884B77008D6C3B767
310
894704BF0A39C0370D0FB5D16F0747E98469E6D9D1571F2166180D4A57D56C3C87EFF087E03B5BAC3FAD73B6C301B95789BD203B1AD30C8A69BB4235D06B29FF7DF55966E4893DB55D019CB34F0471B4F865ADFC82A463401551870BD7C8957B0AE91E86382649CED57A1B51054998307FF3E21739DC7AD69F3A088AC320BF
310
4504B4921954F780D15480624C957925139A479C040FAA00DC174EF537387814F0FA0130D65BF480A8C5AC29348F521F47491E0BFA3E0DEFA669A66BCB2FC799F4ED497F3C196963B914AFB3475343A9BC3827C2E99943E6356F29D6D0928B3C1A005BB6591040CF94677E92E28066EDB1D030426528807D51E52DDDED720E
310
A4DE0A4B4363D37586C8AEFC2C0FB9ACBD3AC4A711DE137F8745856B3DAF0650295C5BD08ACC3E4C38A731E1B2433961AE062AB6094450C4AD96DA128494FB11C9F05BE24F96BC46F831B20B7DE8A532D1CD5E8F3EADA0AA9EE7248ACE2D897D69FF8BCF7194864597760D03A7DF38A11557A1B438E209E2CDC7996F6F896C
310
BAAF492F7941E3DB49FAE4CDE2CFC0C3F04F87471F41A1F5861A79DDB38E397426E26B0CA4321A3AEE8D76C435ACF45199E841C21CBAA6E0C57F2674FFD08DD03A9DC349B8F36918E6915FD4838C44D082E12C679DF27534B44F9CAF78A19110959376348406B93369CADE43771F60956C3ECE9166E518308AC67047EB64C8
310
8915AD212C7D21EFA3E2DA75DDFBAF97FA9FF9B27A4F79242FCF09DBB66A5A6F237407A61B064197AAC2957124254FBD6AF245F2E2721D878116A2F8ADB825A80861E4898AC184BC01B5DE1FF833CE0220D2B5FCDDBB838CD892EDB1A7A88953630E630A876A69BA4FADDE7480EC44F9A8355E2B41A8114C1BB0E0D97BF110
310
7EC3E06AE8FCB8A5BA1AAB585F89C266C260E5A8C705595F3EAE1B5260A5F3DB5F0546E4B92141ADCE45237741D4F7D5B15F6D4850167D5F5D783D7BC8A34D8CA9A88C222CF0367DF75EDE256F2DB8285837EE62E67E18BA3D77BC5CF4067D67D41BDF2C47BDC987BBB9339CCDC74BE7C6628427390B08B7FA96EDEBDE298D
310
F73A300AE8BADC2860AA70FDEAA7E3B9E9E0FFF18D224C36F85C2CFEAA178AB2DD130D592317BB5E285A897AF3BAEEDF3921EAF622F6AACEB99815E800BF5CB6808C74BDEFDE5A68D1BA9368D7B952115F5978CFDE567E7A8DA9117A6B7DA8ED68A3FC3A17C3ECA9A54AE9DBADE4B5BBD16839B9B367BDF10CC86C70B38427
310
318DBD5938EEDC9DCCEDFE7C5122AE6A61D7BAF24B70A856B632468369304F420A4379B2457B92C00D08A60E1DF8954584CB9B0D3400AA8CEB4F043ABCFD54CC5433BC09F5DBC10386C174A82A721EC050146E1DB7865A47BFC118544C22E570CA7C84C2A3A2DD4039A3B706844046A1BE981B1867C9E1A194DE185782DB70
310
BC1777A6E2ADF2EFE36B021D8895A35DE59E2EB828CB6AD109C381547E4E006CA71B92B79BAED5413883C74D9E95C61C178ED62810F40702857130F57B54F01E80782EDBE598724F0D924E93F98B715048ED6598EDE578BD82F76CF1D51293F1D5179486F95EB8F352BDAF49EA893E23CC8B21940781A1CC4CB1B887CFDF59
310
5F59021F314568492108D0EF87F1E80F6B9E445112174BD64C7D5085D60FF0B1D3D6D2233F685C6C6768C9BE478DF5616EC58989B7FC1116C0B58C8AD96801712D004A7AAA0480F688F005BC56DBBF5A2055042A2D6CB57515F0C8993E8244129FE588B4A96EA80C20211740AB624E5B3EE805CF6230049FFE0B504B030414
310
0006080800CE6E3B46AE8E53E23E01000046050000300000006662782F38353536373936362D393541302D344333322D393545442D3543353231434343343033362F636E782E786D6CCD94CF4A033110C65F25E4BE7FB5584A36050F3E8107F196CD4ED7D86C664966C5BEBD49DD56452A1E0AED2D4CBE81EF37F33162FD3E
310
58F6063E18740DAFF29233701A3BE3FA864FB4C9969CADA5F088F44DC6995303343C95B914BDC7699C4B1D6CD46453D51AB79D8B8AC89B7622089C69AB426878D02F30A85C4D841D846DDE295279957B0838790DB19FCC0073BFF6A0083A2EEBB25A646595D5778FD5CD6A71BBAA97CFA2484A295A443BEB8D23F038328DF1
310
E1A2995214E95B8AC99B599308B8FC7296B7C68922FE4B11A25BD7CF3ADA8D49378ED66845714C056A02CAA208D4208A4FB11445E2FD41FD70FF7470C03AE34113FADD8506509D1AC0D1581E93F03FFEBDF06F6C6C5F23EEA5B67D1276B67536D4435A438CEBEFFDC71429D7DBEB0BFDD1D8F9331F4F09197D7DC8075F6722
310
2EF6272F2E3D5D40F901504B0304140006080800CE6E3B468AD6F41D7E000000A30000000B0000006662782F636E782E786D6C4D8CCB0EC22014447F85DC3D4A1F609B008D413FA4B1B421526E83C5F8F982E9C2D5999CCC8C1C3EAB276F1B5F0E8382EAC480D8F0C0C9854541DA67DA0119B48C88FB5F0D481857ABA068D0
310
728998B6434D761E932FD6BBF03C64C7B9B8F442D09E5F196D4D53E774BF516E785D19635AD688BC389749C6EF2FB3DCEB2F504B0304140006080800CE6E3B46A6D797065F0000008200000007000000636E782E786D6C4DCB3B0E80201045D1AD90E9FD7516806B51190811670C8A61F982B1B0BAC9C97B72CA7B1037C6D3
310
332918DA1E04D2CAC69353902EDB8C20262D23F3F59B81A079470595414B17391D1F19B4730A5583A7ED43BBE4025D9592775E5ADFFA01504B0304140006080800CE6E3B464FEB6A7CA0000000F4000000130000005B436F6E74656E745F54797065735D2E786D6C7D8F4B0EC2300C44AF1279DFA6B0400835ED02B8011730
310
C16D239A8F121795DB93D02D6269CFBC19BBED573B8B17C564BC53B0AB1B10E4B47F18372A5878A88E20FAAEBDBD032591BD2E299898C349CAA427B2986A1FC86565F0D122E7318E32A07EE24872DF3407A9BD63725C71C980AEBDD080CBCCE2BAE6F5D69B7110E7CD57AA146008B3D1C8F92C5954F993BB1BF787F39A89AB
310
C491D09600F9FDA2FB00504B0304140006080800CE6E3B463DEE336E64000000790000001B0000006175746F6465736B2D64657369676E2D7061636B6167652E786D6C35CBC10E83200C00D05F21DCA56CA76D41FC96062B120735B69A7DBE268BB7777961F8D5AF396893C2ADB70FE7ADA196782C2DF776D7A97B5933C430
310
F15651E5469C55D70F80A4992A3ADC954792C525AE70A1E4D6AD9816CC044FEFDF01FE3FDE907802504B0304140006080800CE6E3B46C551C943F8000000960100003B0000006662782F38353536373936362D393541302D344333322D393545442D3543353231434343343033362F7265736F75726365732F636F72652E78
310
6D6C8550CB6E833010FC15B47703E69528328E0855BEA0A7DE2CB32156828DFCA8FAF9B50395DA534FBB9A9D99DD1D76FE5A9ED9275AA78CEE81E62564A8A599949E7B08FE468E909D39B3C6F85F34C8B458B087040367B33561DD2169B4479D506D26DC41E11C7AC8E433363D3879C745E422F8C8708F7C15F22166CC69BE
310
F1380B414DBB544DD14DDD145AE0D7B67CA394366438761D692ED78E5CEA7A207418BB71ACBB6A3854AC4862CEBC5A7EB64B8BC2E304BC2A694B4A4AAAC33BAD4F6D73AA8E1FAC484CCE9CB7F1E77D69FA0EB845678295E858B14DFFB88675FADF3528EDEB6A77DD140E388D47BE069C1529A5585E11C69A12E5DF504B0304
310
140006080800CE6E3B46DC1C8612F0000000B1010000310000006662782F38353536373936362D393541302D344333322D393545442D3543353231434343343033362F636F72652E786D6C8D50CB6EC32010FC156BEFD8061BE7214C54B9FD839E7A43405C94182C1E553FBF10BB527BCB6957C30C333BECF2BDDCAB2FED83
310
7176045CB750692B9D32761E21C52B3A4275E1CC3B17FFD0A0B262D1231418389BBD4BEB0E4967A3B605B54EE91D1421E80895BCE76584203FF5226A916266845BBD0A7913B3AE71BDF1388B66F9954AAF45D40A386931452D46E4F08EBB33EDCFE4F8C19AC2E42C25A3762BA3B2BBB91AED811F291D0EA7614027FAD2A27E
310
EA48DEDE5E119D28C1D334F56D37B0A688390BD1E79BF74FCA75CFCA37E1BFCC69554F643636766437DC140138CE791E0F9C35A5C03C1EEDE659CAE63F504B0304140006080800CE6E3B467B615ADC54010000DD0200000C0000006662782F636F72652E786D6C8D52DB8E832014FC15C33B2A6A6DD3208DEDA65FB04FFB46
310
915A52058360FAF90B5EE2FAB0DD8D099239E7CC9C99804FAFB60906AE7BA16401501883804BA62A21EB0258738707109C08D64A991F6D2090B4E505F03020B8D6CA7633C494345C7A54AA8ACF20ED7B6E40C01A772940CF1EBCA521B5C675F4CFB0A3EC496B1EA270EA23D85A51CDA3A2726CE22EB806E4BA8B3F1042192C
310
0F790EB3F33587E7342D212A2FF9E592E649B94F70E4870936A25DD499E6D4F00A9024463B182398EC3F517ADC65C7E4F08523DF49706FB4F33C8B7A7780DC6F2F1C4DF886CF76D5DF7C5648932633DF34D10382DC7A6381E0C8E7E37E6378DB0C9DB0CBCFD05BB358783A68E0CC289DB94AA5EC5A1A6863B9A38E83F1C3D1
310
5475CC23C16F3CC91B9EF71C2E282A6BB71A35EE7AB3C6AB6F77EAB88683790552E99636EB72D38AEBB90A6D2C2DE34C354AFF677AB1BA8419F98749BE01504B0304140006080800CE6E3B4668F7A02107010000B201000008000000636F72652E786D6C8D50CB6EC32010FC15B4776CE357A2081339AEF2053DF5460D7151
310
6CB00C44EDDF17622AB5B79E16CDCCEE0C43CF9FCB8C1E72B3CAE80E485600927A3442E9A903EF6EF808E8CCE8668CFB2503A4F9223B8830303A6DC6AF091A8D765247541B2113C8AD950ED03887470776FC900BCFB8774161EFD9CAC73B9F6446B25DC7A853CBCFEAB849EEA4005616A4C105C1E5E19554A7A63E95C7379A
310
4725A3DE2B91AC9408EEEAA6E406ECDA142F84901AF7C7B6C5F5E5DAE24B55F598F4433B0C555BF68792E6719951EBB6F0E77424E474C8F247F4A5F94E31FA6ECC9C0421944046CF5FC00A9A47E24F68BF8A7F8456DA55653AB86F586024047A12C1383618C6B3DE3063DBEC1B504B01021400140006080800CE6E3B460000
310
000000000000000000003700000000000000000000000000000000006662782F38353536373936362D393541302D344333322D393545442D3543353231434343343033362F617474726962757465732E62696E504B01021400140006080800CE6E3B4600000000000000000000000035000000000000000000000000005500
310
00006662782F38353536373936362D393541302D344333322D393545442D3543353231434343343033362F76657274696365732E62696E504B01021400140006080800CE6E3B46F270F13306000000040000003600000000000000000000000000A80000006662782F38353536373936362D393541302D344333322D393545
310
442D3543353231434343343033362F747269616E676C65732E62696E504B01021400140006080800CE6E3B4651464CB489000000430100003600000000000000000000000000020100006662782F38353536373936362D393541302D344333322D393545442D3543353231434343343033362F6469726563746F72792E786D
310
6C504B01021400140006080800CE6E3B4635F9357137070000201C00003400000000000000000000000000DF0100006662782F38353536373936362D393541302D344333322D393545442D3543353231434343343033362F6F626A656374732E786D6C504B01021400140006080800CE6E3B46AE8E53E23E01000046050000
310
3000000000000000000000000000680900006662782F38353536373936362D393541302D344333322D393545442D3543353231434343343033362F636E782E786D6C504B01021400140006080800CE6E3B468AD6F41D7E000000A30000000B00000000000000000000000000F40A00006662782F636E782E786D6C504B0102
310
1400140006080800CE6E3B46A6D797065F0000008200000007000000000000000000000000009B0B0000636E782E786D6C504B01021400140006080800CE6E3B464FEB6A7CA0000000F400000013000000000000000000000000001F0C00005B436F6E74656E745F54797065735D2E786D6C504B01021400140006080800CE
310
6E3B463DEE336E64000000790000001B00000000000000000000000000F00C00006175746F6465736B2D64657369676E2D7061636B6167652E786D6C504B01021400140006080800CE6E3B46C551C943F8000000960100003B000000000000000000000000008D0D00006662782F38353536373936362D393541302D344333
310
322D393545442D3543353231434343343033362F7265736F75726365732F636F72652E786D6C504B01021400140006080800CE6E3B46DC1C8612F0000000B10100003100000000000000000000000000DE0E00006662782F38353536373936362D393541302D344333322D393545442D3543353231434343343033362F636F
310
72652E786D6C504B01021400140006080800CE6E3B467B615ADC54010000DD0200000C000000000000000000000000001D1000006662782F636F72652E786D6C504B01021400140006080800CE6E3B4668F7A02107010000B201000008000000000000000000000000009B110000636F72652E786D6C504B0506000000000E
310
000E0080040000C81200000000
  0
DICTIONARY
  5
48B
102
{ACAD_REACTORS
330
48A
102
}
330
48A
100
AcDbDictionary
280
     1
281
     1
  3
TEXT
360
48C
  0
XRECORD
  5
4EF
102
{ACAD_REACTORS
330
48A
102
}
330
48A
100
AcDbXrecord
280
     1
102
DISPLAYNAME
  1
ASME Y14.3 - 2003(1)
102
FLAGS
 90
        0
  0
XRECORD
  5
4F3
102
{ACAD_REACTORS
330
4A6
102
}
330
4A6
100
AcDbXrecord
280
     1
102
DISPLAYNAME
  1
Imperial24
102
FLAGS
 90
        0
  0
DICTIONARY
  5
496
102
{ACAD_REACTORS
330
495
102
}
330
495
100
AcDbDictionary
280
     1
281
     1
  3
TEXT
360
497
  0
XRECORD
  5
4F0
102
{ACAD_REACTORS
330
495
102
}
330
495
100
AcDbXrecord
280
     1
102
DISPLAYNAME
  1
ISO 128:1982(1)
102
FLAGS
 90
        0
  0
DICTIONARY
  5
49D
102
{ACAD_REACTORS
330
49C
102
}
330
49C
100
AcDbDictionary
280
     1
281
     1
  3
TEXT
360
49E
  0
XRECORD
  5
4F1
102
{ACAD_REACTORS
330
49C
102
}
330
49C
100
AcDbXrecord
280
     1
102
DISPLAYNAME
  1
JIS  B 0001 : 2000(1)
102
FLAGS
 90
        0
  0
XRECORD
  5
4F2
102
{ACAD_REACTORS
330
4A3
102
}
330
4A3
100
AcDbXrecord
280
     1
102
DISPLAYNAME
  1
Metric50
102
FLAGS
 90
        0
  0
CELLSTYLEMAP
  5
4D0
102
{ACAD_REACTORS
330
57
102
}
330
57
100
AcDbCellStyleMap
 90
        3
300
CELLSTYLE
  1
TABLEFORMAT_BEGIN
 90
        5
170
     1
 91
        0
 92
    32768
 62
   257
 93
        1
300
CONTENTFORMAT
  1
CONTENTFORMAT_BEGIN
 90
        0
 91
        0
 92
      512
 93
        0
300

 40
0.0
140
1.0
 94
        5
 62
     0
340
29
144
6.0
309
CONTENTFORMAT_END
171
     1
301
MARGIN
  1
CELLMARGIN_BEGIN
 40
1.5
 40
1.5
 40
1.5
 40
1.5
 40
0.18
 40
0.18
309
CELLMARGIN_END
 94
        6
 95
        1
302
GRIDFORMAT
  1
GRIDFORMAT_BEGIN
 90
        0
 91
        1
 62
     0
 92
       -2
340
0
 93
        0
 40
0.045
309
GRIDFORMAT_END
 95
        2
302
GRIDFORMAT
  1
GRIDFORMAT_BEGIN
 90
        0
 91
        1
 62
     0
 92
       -2
340
0
 93
        0
 40
0.045
309
GRIDFORMAT_END
 95
        4
302
GRIDFORMAT
  1
GRIDFORMAT_BEGIN
 90
        0
 91
        1
 62
     0
 92
       -2
340
0
 93
        0
 40
0.045
309
GRIDFORMAT_END
 95
        8
302
GRIDFORMAT
  1
GRIDFORMAT_BEGIN
 90
        0
 91
        1
 62
     0
 92
       -2
340
0
 93
        0
 40
0.045
309
GRIDFORMAT_END
 95
       16
302
GRIDFORMAT
  1
GRIDFORMAT_BEGIN
 90
        0
 91
        1
 62
     0
 92
       -2
340
0
 93
        0
 40
0.045
309
GRIDFORMAT_END
 95
       32
302
GRIDFORMAT
  1
GRIDFORMAT_BEGIN
 90
        0
 91
        1
 62
     0
 92
       -2
340
0
 93
        0
 40
0.045
309
GRIDFORMAT_END
309
TABLEFORMAT_END
  1
CELLSTYLE_BEGIN
 90
        1
 91
        1
300
_TITLE
309
CELLSTYLE_END
300
CELLSTYLE
  1
TABLEFORMAT_BEGIN
 90
        5
170
     1
 91
        0
 92
        0
 62
   257
 93
        1
300
CONTENTFORMAT
  1
CONTENTFORMAT_BEGIN
 90
        0
 91
        0
 92
      512
 93
        0
300

 40
0.0
140
1.0
 94
        5
 62
     0
340
29
144
4.5
309
CONTENTFORMAT_END
171
     1
301
MARGIN
  1
CELLMARGIN_BEGIN
 40
1.5
 40
1.5
 40
1.5
 40
1.5
 40
0.18
 40
0.18
309
CELLMARGIN_END
 94
        6
 95
        1
302
GRIDFORMAT
  1
GRIDFORMAT_BEGIN
 90
        0
 91
        1
 62
     0
 92
       -2
340
0
 93
        0
 40
0.045
309
GRIDFORMAT_END
 95
        2
302
GRIDFORMAT
  1
GRIDFORMAT_BEGIN
 90
        0
 91
        1
 62
     0
 92
       -2
340
0
 93
        0
 40
0.045
309
GRIDFORMAT_END
 95
        4
302
GRIDFORMAT
  1
GRIDFORMAT_BEGIN
 90
        0
 91
        1
 62
     0
 92
       -2
340
0
 93
        0
 40
0.045
309
GRIDFORMAT_END
 95
        8
302
GRIDFORMAT
  1
GRIDFORMAT_BEGIN
 90
        0
 91
        1
 62
     0
 92
       -2
340
0
 93
        0
 40
0.045
309
GRIDFORMAT_END
 95
       16
302
GRIDFORMAT
  1
GRIDFORMAT_BEGIN
 90
        0
 91
        1
 62
     0
 92
       -2
340
0
 93
        0
 40
0.045
309
GRIDFORMAT_END
 95
       32
302
GRIDFORMAT
  1
GRIDFORMAT_BEGIN
 90
        0
 91
        1
 62
     0
 92
       -2
340
0
 93
        0
 40
0.045
309
GRIDFORMAT_END
309
TABLEFORMAT_END
  1
CELLSTYLE_BEGIN
 90
        2
 91
        1
300
_HEADER
309
CELLSTYLE_END
300
CELLSTYLE
  1
TABLEFORMAT_BEGIN
 90
        5
170
     1
 91
        0
 92
        0
 62
   257
 93
        1
300
CONTENTFORMAT
  1
CONTENTFORMAT_BEGIN
 90
        0
 91
        0
 92
      512
 93
        0
300

 40
0.0
140
1.0
 94
        2
 62
     0
340
29
144
4.5
309
CONTENTFORMAT_END
171
     1
301
MARGIN
  1
CELLMARGIN_BEGIN
 40
1.5
 40
1.5
 40
1.5
 40
1.5
 40
0.18
 40
0.18
309
CELLMARGIN_END
 94
        6
 95
        1
302
GRIDFORMAT
  1
GRIDFORMAT_BEGIN
 90
        0
 91
        1
 62
     0
 92
       -2
340
0
 93
        0
 40
0.045
309
GRIDFORMAT_END
 95
        2
302
GRIDFORMAT
  1
GRIDFORMAT_BEGIN
 90
        0
 91
        1
 62
     0
 92
       -2
340
0
 93
        0
 40
0.045
309
GRIDFORMAT_END
 95
        4
302
GRIDFORMAT
  1
GRIDFORMAT_BEGIN
 90
        0
 91
        1
 62
     0
 92
       -2
340
0
 93
        0
 40
0.045
309
GRIDFORMAT_END
 95
        8
302
GRIDFORMAT
  1
GRIDFORMAT_BEGIN
 90
        0
 91
        1
 62
     0
 92
       -2
340
0
 93
        0
 40
0.045
309
GRIDFORMAT_END
 95
       16
302
GRIDFORMAT
  1
GRIDFORMAT_BEGIN
 90
        0
 91
        1
 62
     0
 92
       -2
340
0
 93
        0
 40
0.045
309
GRIDFORMAT_END
 95
       32
302
GRIDFORMAT
  1
GRIDFORMAT_BEGIN
 90
        0
 91
        1
 62
     0
 92
       -2
340
0
 93
        0
 40
0.045
309
GRIDFORMAT_END
309
TABLEFORMAT_END
  1
CELLSTYLE_BEGIN
 90
        3
 91
        2
300
_DATA
309
CELLSTYLE_END
  0
XRECORD
  5
4E5
102
{ACAD_REACTORS
330
57
102
}
330
57
100
AcDbXrecord
280
     1
102
ACAD_ROUNDTRIP_PRE2007_TABLESTYLE
 90
      512
 91
        0
  1

 92
      512
 93
        0
  2

 94
      512
 95
        0
  3

  0
XRECORD
  5
4E0
102
{ACAD_REACTORS
330
4DF
102
}
330
4DF
100
AcDbXrecord
280
     1
102
RTVSPost2010Prop28
280
     1
102
RTVSPost2010PropOp28
 70
     1
102
RTVSPost2010Prop29
280
     1
102
RTVSPost2010PropOp29
 70
     1
102
RTVSPost2010Prop30
280
     0
102
RTVSPost2010PropOp30
 70
     1
102
RTVSPost2010Prop31
280
     0
102
RTVSPost2010PropOp31
 70
     1
102
RTVSPost2010Prop32
280
     0
102
RTVSPost2010PropOp32
 70
     1
102
RTVSPost2010Prop33
280
     0
102
RTVSPost2010PropOp33
 70
     1
102
RTVSPost2010Prop34
280
     0
102
RTVSPost2010PropOp34
 70
     1
102
RTVSPost2010Prop35
280
     0
102
RTVSPost2010PropOp35
 70
     1
102
RTVSPost2010Prop36
280
     0
102
RTVSPost2010PropOp36
 70
     1
102
RTVSPost2010Prop37
 90
       50
102
RTVSPost2010PropOp37
 70
     1
102
RTVSPost2010Prop38
140
0.0
102
RTVSPost2010PropOp38
 70
     1
102
RTVSPost2010Prop39
140
1.0
102
RTVSPost2010PropOp39
 70
     1
102
RTVSPost2010Prop40
 90
        0
102
RTVSPost2010PropOp40
 70
     1
102
RTVSPost2010Prop41ColorIndex
 90
       18
102
RTVSPost2010Prop41ColorRGB
 90
        0
102
RTVSPost2010PropOp41
 70
     1
102
RTVSPost2010Prop42
 90
       50
102
RTVSPost2010PropOp42
 70
     1
102
RTVSPost2010Prop43
 90
        3
102
RTVSPost2010PropOp43
 70
     1
102
RTVSPost2010Prop44ColorIndex
 90
        5
102
RTVSPost2010Prop44ColorRGB
 90
      255
102
RTVSPost2010PropOp44
 70
     1
102
RTVSPost2010Prop45
280
     0
102
RTVSPost2010PropOp45
 70
     1
102
RTVSPost2010Prop46
 90
       50
102
RTVSPost2010PropOp46
 70
     1
102
RTVSPost2010Prop47
 90
       50
102
RTVSPost2010PropOp47
 70
     1
102
RTVSPost2010Prop48
 90
       50
102
RTVSPost2010PropOp48
 70
     1
102
RTVSPost2010Prop49
280
     0
102
RTVSPost2010PropOp49
 70
     1
102
RTVSPost2010Prop50
 90
       50
102
RTVSPost2010PropOp50
 70
     1
102
RTVSPost2010Prop51ColorIndex
 90
      256
102
RTVSPost2010Prop51ColorRGB
 90
-16777216
102
RTVSPost2010PropOp51
 70
     0
102
RTVSPost2010Prop52
140
1.0
102
RTVSPost2010PropOp52
 70
     0
102
RTVSPost2010Prop53
 90
        2
102
RTVSPost2010PropOp53
 70
     1
102
RTVSPost2010Prop54
  1
strokes_ogs.tif
102
RTVSPost2010PropOp54
 70
     1
102
RTVSPost2010Prop55
280
     0
102
RTVSPost2010PropOp55
 70
     1
102
RTVSPost2010Prop56
140
1.0
102
RTVSPost2010PropOp56
 70
     1
102
RTVSPost2010Prop57
140
1.0
102
RTVSPost2010PropOp57
 70
     1
102
RTVSPropertyOp0
 70
     1
102
RTVSPropertyOp1
 70
     1
102
RTVSPropertyOp2
 70
     1
102
RTVSPropertyOp3
 70
     1
102
RTVSPropertyOp4
 70
     1
102
RTVSPropertyOp5
 70
     1
102
RTVSPropertyOp6
 70
     1
102
RTVSPropertyOp7
 70
     1
102
RTVSPropertyOp8
 70
     1
102
RTVSPropertyOp9
 70
     1
102
RTVSPropertyOp10
 70
     1
102
RTVSPropertyOp11
 70
     1
102
RTVSPropertyOp12
 70
     1
102
RTVSPropertyOp13
 70
     1
102
RTVSPropertyOp14
 70
     1
102
RTVSPropertyOp15
 70
     1
102
RTVSPropertyOp16
 70
     1
102
RTVSPropertyOp17
 70
     1
102
RTVSPropertyOp18
 70
     1
102
RTVSPropertyOp19
 70
     1
102
RTVSPropertyOp20
 70
     1
102
RTVSPropertyOp21
 70
     1
102
RTVSPropertyOp22
 70
     1
102
RTVSPropertyOp23
 70
     1
102
RTVSPropertyOp24
 70
     1
102
RTVSPropertyOp25
 70
     1
102
RTVSPropertyOp26
 70
     1
102
RTVSPropertyOp27
 70
     1
102
RTVSPropertyOp28
 70
     1
102
RTVSPropertyOp29
 70
     1
102
RTVSPropertyOp30
 70
     1
102
RTVSPropertyOp31
 70
     1
102
RTVSPropertyOp32
 70
     1
102
RTVSPropertyOp33
 70
     1
102
RTVSPropertyOp34
 70
     1
102
RTVSPropertyOp35
 70
     1
102
RTVSPropertyOp36
 70
     1
102
RTVSPropertyOp37
 70
     1
102
RTVSPropertyOp38
 70
     1
102
RTVSPropertyOp39
 70
     1
102
RTVSPropertyOp40
 70
     1
102
RTVSPropertyOp41
 70
     1
102
RTVSPropertyOp42
 70
     1
102
RTVSPropertyOp43
 70
     1
102
RTVSPropertyOp44
 70
     1
102
RTVSPropertyOp45
 70
     1
102
RTVSPropertyOp46
 70
     1
102
RTVSPropertyOp47
 70
     1
102
RTVSPropertyOp48
 70
     1
102
RTVSPropertyOp49
 70
     1
102
RTVSPropertyOp50
 70
     1
102
RTVSPropertyOp51
 70
     0
102
RTVSPropertyOp52
 70
     0
102
RTVSPropertyOp53
 70
     1
102
RTVSPropertyOp54
 70
     1
102
RTVSPropertyOp55
 70
     1
102
RTVSPropertyOp56
 70
     1
102
RTVSPropertyOp57
 70
     1
102
RTVSPropertyOp58
 70
     1
102
RTVSPropertyOp59
 70
     1
102
RTVSPropertyOp60
 70
     1
102
RTVSPropertyOp61
 70
     1
102
RTVSPropertyOp62
 70
     1
  0
XRECORD
  5
4E9
102
{ACAD_REACTORS
330
4E8
102
}
330
4E8
100
AcDbXrecord
280
     1
102
RTVSPost2010Prop28
280
     0
102
RTVSPost2010PropOp28
 70
     1
102
RTVSPost2010Prop29
280
     1
102
RTVSPost2010PropOp29
 70
     1
102
RTVSPost2010Prop30
280
     1
102
RTVSPost2010PropOp30
 70
     1
102
RTVSPost2010Prop31
280
     0
102
RTVSPost2010PropOp31
 70
     1
102
RTVSPost2010Prop32
280
     0
102
RTVSPost2010PropOp32
 70
     1
102
RTVSPost2010Prop33
280
     0
102
RTVSPost2010PropOp33
 70
     1
102
RTVSPost2010Prop34
280
     0
102
RTVSPost2010PropOp34
 70
     1
102
RTVSPost2010Prop35
280
     0
102
RTVSPost2010PropOp35
 70
     1
102
RTVSPost2010Prop36
280
     0
102
RTVSPost2010PropOp36
 70
     1
102
RTVSPost2010Prop37
 90
       50
102
RTVSPost2010PropOp37
 70
     1
102
RTVSPost2010Prop38
140
0.0
102
RTVSPost2010PropOp38
 70
     1
102
RTVSPost2010Prop39
140
1.0
102
RTVSPost2010PropOp39
 70
     1
102
RTVSPost2010Prop40
 90
        0
102
RTVSPost2010PropOp40
 70
     1
102
RTVSPost2010Prop41ColorIndex
 90
       18
102
RTVSPost2010Prop41ColorRGB
 90
        0
102
RTVSPost2010PropOp41
 70
     1
102
RTVSPost2010Prop42
 90
       50
102
RTVSPost2010PropOp42
 70
     1
102
RTVSPost2010Prop43
 90
        3
102
RTVSPost2010PropOp43
 70
     1
102
RTVSPost2010Prop44ColorIndex
 90
        5
102
RTVSPost2010Prop44ColorRGB
 90
      255
102
RTVSPost2010PropOp44
 70
     1
102
RTVSPost2010Prop45
280
     0
102
RTVSPost2010PropOp45
 70
     1
102
RTVSPost2010Prop46
 90
       50
102
RTVSPost2010PropOp46
 70
     1
102
RTVSPost2010Prop47
 90
       50
102
RTVSPost2010PropOp47
 70
     1
102
RTVSPost2010Prop48
 90
       50
102
RTVSPost2010PropOp48
 70
     1
102
RTVSPost2010Prop49
280
     0
102
RTVSPost2010PropOp49
 70
     1
102
RTVSPost2010Prop50
 90
       50
102
RTVSPost2010PropOp50
 70
     1
102
RTVSPost2010Prop51ColorIndex
 90
      256
102
RTVSPost2010Prop51ColorRGB
 90
-16777216
102
RTVSPost2010PropOp51
 70
     0
102
RTVSPost2010Prop52
140
1.0
102
RTVSPost2010PropOp52
 70
     0
102
RTVSPost2010Prop53
 90
        2
102
RTVSPost2010PropOp53
 70
     1
102
RTVSPost2010Prop54
  1
strokes_ogs.tif
102
RTVSPost2010PropOp54
 70
     1
102
RTVSPost2010Prop55
280
     0
102
RTVSPost2010PropOp55
 70
     1
102
RTVSPost2010Prop56
140
1.0
102
RTVSPost2010PropOp56
 70
     1
102
RTVSPost2010Prop57
140
1.0
102
RTVSPost2010PropOp57
 70
     1
102
RTVSPropertyOp0
 70
     1
102
RTVSPropertyOp1
 70
     1
102
RTVSPropertyOp2
 70
     1
102
RTVSPropertyOp3
 70
     1
102
RTVSPropertyOp4
 70
     1
102
RTVSPropertyOp5
 70
     1
102
RTVSPropertyOp6
 70
     1
102
RTVSPropertyOp7
 70
     1
102
RTVSPropertyOp8
 70
     1
102
RTVSPropertyOp9
 70
     1
102
RTVSPropertyOp10
 70
     1
102
RTVSPropertyOp11
 70
     1
102
RTVSPropertyOp12
 70
     1
102
RTVSPropertyOp13
 70
     1
102
RTVSPropertyOp14
 70
     1
102
RTVSPropertyOp15
 70
     1
102
RTVSPropertyOp16
 70
     1
102
RTVSPropertyOp17
 70
     1
102
RTVSPropertyOp18
 70
     1
102
RTVSPropertyOp19
 70
     1
102
RTVSPropertyOp20
 70
     1
102
RTVSPropertyOp21
 70
     1
102
RTVSPropertyOp22
 70
     1
102
RTVSPropertyOp23
 70
     1
102
RTVSPropertyOp24
 70
     1
102
RTVSPropertyOp25
 70
     1
102
RTVSPropertyOp26
 70
     1
102
RTVSPropertyOp27
 70
     1
102
RTVSPropertyOp28
 70
     1
102
RTVSPropertyOp29
 70
     1
102
RTVSPropertyOp30
 70
     1
102
RTVSPropertyOp31
 70
     1
102
RTVSPropertyOp32
 70
     1
102
RTVSPropertyOp33
 70
     1
102
RTVSPropertyOp34
 70
     1
102
RTVSPropertyOp35
 70
     1
102
RTVSPropertyOp36
 70
     1
102
RTVSPropertyOp37
 70
     1
102
RTVSPropertyOp38
 70
     1
102
RTVSPropertyOp39
 70
     1
102
RTVSPropertyOp40
 70
     1
102
RTVSPropertyOp41
 70
     1
102
RTVSPropertyOp42
 70
     1
102
RTVSPropertyOp43
 70
     1
102
RTVSPropertyOp44
 70
     1
102
RTVSPropertyOp45
 70
     1
102
RTVSPropertyOp46
 70
     1
102
RTVSPropertyOp47
 70
     1
102
RTVSPropertyOp48
 70
     1
102
RTVSPropertyOp49
 70
     1
102
RTVSPropertyOp50
 70
     1
102
RTVSPropertyOp51
 70
     0
102
RTVSPropertyOp52
 70
     0
102
RTVSPropertyOp53
 70
     1
102
RTVSPropertyOp54
 70
     1
102
RTVSPropertyOp55
 70
     1
102
RTVSPropertyOp56
 70
     1
102
RTVSPropertyOp57
 70
     1
102
RTVSPropertyOp58
 70
     1
102
RTVSPropertyOp59
 70
     1
102
RTVSPropertyOp60
 70
     1
102
RTVSPropertyOp61
 70
     1
102
RTVSPropertyOp62
 70
     1
  0
XRECORD
  5
4E7
102
{ACAD_REACTORS
330
4E6
102
}
330
4E6
100
AcDbXrecord
280
     1
102
RTVSPost2010Prop28
280
     0
102
RTVSPost2010PropOp28
 70
     1
102
RTVSPost2010Prop29
280
     1
102
RTVSPost2010PropOp29
 70
     1
102
RTVSPost2010Prop30
280
     1
102
RTVSPost2010PropOp30
 70
     1
102
RTVSPost2010Prop31
280
     0
102
RTVSPost2010PropOp31
 70
     1
102
RTVSPost2010Prop32
280
     0
102
RTVSPost2010PropOp32
 70
     1
102
RTVSPost2010Prop33
280
     0
102
RTVSPost2010PropOp33
 70
     1
102
RTVSPost2010Prop34
280
     0
102
RTVSPost2010PropOp34
 70
     1
102
RTVSPost2010Prop35
280
     0
102
RTVSPost2010PropOp35
 70
     1
102
RTVSPost2010Prop36
280
     0
102
RTVSPost2010PropOp36
 70
     1
102
RTVSPost2010Prop37
 90
       50
102
RTVSPost2010PropOp37
 70
     1
102
RTVSPost2010Prop38
140
0.0
102
RTVSPost2010PropOp38
 70
     1
102
RTVSPost2010Prop39
140
1.0
102
RTVSPost2010PropOp39
 70
     1
102
RTVSPost2010Prop40
 90
        0
102
RTVSPost2010PropOp40
 70
     1
102
RTVSPost2010Prop41ColorIndex
 90
       18
102
RTVSPost2010Prop41ColorRGB
 90
        0
102
RTVSPost2010PropOp41
 70
     1
102
RTVSPost2010Prop42
 90
       50
102
RTVSPost2010PropOp42
 70
     1
102
RTVSPost2010Prop43
 90
        3
102
RTVSPost2010PropOp43
 70
     1
102
RTVSPost2010Prop44ColorIndex
 90
        5
102
RTVSPost2010Prop44ColorRGB
 90
      255
102
RTVSPost2010PropOp44
 70
     1
102
RTVSPost2010Prop45
280
     0
102
RTVSPost2010PropOp45
 70
     1
102
RTVSPost2010Prop46
 90
       50
102
RTVSPost2010PropOp46
 70
     1
102
RTVSPost2010Prop47
 90
       50
102
RTVSPost2010PropOp47
 70
     1
102
RTVSPost2010Prop48
 90
       50
102
RTVSPost2010PropOp48
 70
     1
102
RTVSPost2010Prop49
280
     0
102
RTVSPost2010PropOp49
 70
     1
102
RTVSPost2010Prop50
 90
       50
102
RTVSPost2010PropOp50
 70
     1
102
RTVSPost2010Prop51ColorIndex
 90
      256
102
RTVSPost2010Prop51ColorRGB
 90
-16777216
102
RTVSPost2010PropOp51
 70
     0
102
RTVSPost2010Prop52
140
1.0
102
RTVSPost2010PropOp52
 70
     0
102
RTVSPost2010Prop53
 90
        2
102
RTVSPost2010PropOp53
 70
     1
102
RTVSPost2010Prop54
  1
strokes_ogs.tif
102
RTVSPost2010PropOp54
 70
     1
102
RTVSPost2010Prop55
280
     0
102
RTVSPost2010PropOp55
 70
     1
102
RTVSPost2010Prop56
140
1.0
102
RTVSPost2010PropOp56
 70
     1
102
RTVSPost2010Prop57
140
1.0
102
RTVSPost2010PropOp57
 70
     1
102
RTVSPropertyOp0
 70
     1
102
RTVSPropertyOp1
 70
     1
102
RTVSPropertyOp2
 70
     1
102
RTVSPropertyOp3
 70
     1
102
RTVSPropertyOp4
 70
     1
102
RTVSPropertyOp5
 70
     1
102
RTVSPropertyOp6
 70
     1
102
RTVSPropertyOp7
 70
     1
102
RTVSPropertyOp8
 70
     1
102
RTVSPropertyOp9
 70
     1
102
RTVSPropertyOp10
 70
     1
102
RTVSPropertyOp11
 70
     1
102
RTVSPropertyOp12
 70
     1
102
RTVSPropertyOp13
 70
     1
102
RTVSPropertyOp14
 70
     1
102
RTVSPropertyOp15
 70
     1
102
RTVSPropertyOp16
 70
     1
102
RTVSPropertyOp17
 70
     1
102
RTVSPropertyOp18
 70
     1
102
RTVSPropertyOp19
 70
     1
102
RTVSPropertyOp20
 70
     1
102
RTVSPropertyOp21
 70
     1
102
RTVSPropertyOp22
 70
     1
102
RTVSPropertyOp23
 70
     1
102
RTVSPropertyOp24
 70
     1
102
RTVSPropertyOp25
 70
     1
102
RTVSPropertyOp26
 70
     1
102
RTVSPropertyOp27
 70
     1
102
RTVSPropertyOp28
 70
     1
102
RTVSPropertyOp29
 70
     1
102
RTVSPropertyOp30
 70
     1
102
RTVSPropertyOp31
 70
     1
102
RTVSPropertyOp32
 70
     1
102
RTVSPropertyOp33
 70
     1
102
RTVSPropertyOp34
 70
     1
102
RTVSPropertyOp35
 70
     1
102
RTVSPropertyOp36
 70
     1
102
RTVSPropertyOp37
 70
     1
102
RTVSPropertyOp38
 70
     1
102
RTVSPropertyOp39
 70
     1
102
RTVSPropertyOp40
 70
     1
102
RTVSPropertyOp41
 70
     1
102
RTVSPropertyOp42
 70
     1
102
RTVSPropertyOp43
 70
     1
102
RTVSPropertyOp44
 70
     1
102
RTVSPropertyOp45
 70
     1
102
RTVSPropertyOp46
 70
     1
102
RTVSPropertyOp47
 70
     1
102
RTVSPropertyOp48
 70
     1
102
RTVSPropertyOp49
 70
     1
102
RTVSPropertyOp50
 70
     1
102
RTVSPropertyOp51
 70
     0
102
RTVSPropertyOp52
 70
     0
102
RTVSPropertyOp53
 70
     1
102
RTVSPropertyOp54
 70
     1
102
RTVSPropertyOp55
 70
     1
102
RTVSPropertyOp56
 70
     1
102
RTVSPropertyOp57
 70
     1
102
RTVSPropertyOp58
 70
     1
102
RTVSPropertyOp59
 70
     1
102
RTVSPropertyOp60
 70
     1
102
RTVSPropertyOp61
 70
     1
102
RTVSPropertyOp62
 70
     1
  0
FIELD
  5
465
102
{ACAD_REACTORS
330
464
102
}
330
464
100
AcDbField
  1
_text
  2
DETAIL %<\_FldIdx 0>%\PSCALE %<\_FldIdx 1>%
 90
        2
360
466
360
467
 97
        0
  4

 91
       63
 92
        0
 94
        9
 95
        2
 96
        0
300

 93
        0
  7
ACFD_FIELD_VALUE
 90
        0
 91
        0
301

 98
        0
  0
FIELD
  5
48C
102
{ACAD_REACTORS
330
48B
102
}
330
48B
100
AcDbField
  1
_text
  2
SECTION %<\_FldIdx 0>%-%<\_FldIdx 1>%
 90
        2
360
48D
360
48E
 97
        0
  4

 91
       63
 92
        0
 94
        9
 95
        2
 96
        0
300

 93
        0
  7
ACFD_FIELD_VALUE
 90
        0
 91
        0
301

 98
        0
  0
FIELD
  5
497
102
{ACAD_REACTORS
330
496
102
}
330
496
100
AcDbField
  1
_text
  2
%<\_FldIdx 0>%-%<\_FldIdx 1>%
 90
        2
360
498
360
499
 97
        0
  4

 91
       63
 92
        0
 94
        9
 95
        2
 96
        0
300

 93
        0
  7
ACFD_FIELD_VALUE
 90
        0
 91
        0
301

 98
        0
  0
FIELD
  5
49E
102
{ACAD_REACTORS
330
49D
102
}
330
49D
100
AcDbField
  1
_text
  2
%<\_FldIdx 0>%-%<\_FldIdx 1>%
 90
        2
360
49F
360
4A0
 97
        0
  4

 91
       63
 92
        0
 94
        9
 95
        2
 96
        0
300

 93
        0
  7
ACFD_FIELD_VALUE
 90
        0
 91
        0
301

 98
        0
  0
FIELD
  5
466
330
465
100
AcDbField
  1
AcVar
  2
\AcVar ViewDetailId
 90
        0
 97
        0
  4

 91
       63
 92
        0
 94
       43
 95
        2
 96
        0
300

 93
        1
  6
Variable
 90
        4
  1
ViewDetailId
  7
ACFD_FIELD_VALUE
 90
        0
 91
        0
301
----
 98
        4
  0
FIELD
  5
467
330
465
100
AcDbField
  1
AcVar
  2
\AcVar ViewScale \f "%sn"
 90
        0
 97
        0
  4
%sn
 91
       63
 92
        0
 94
       43
 95
        2
 96
        0
300

 93
        1
  6
Variable
 90
        4
  1
ViewScale
  7
ACFD_FIELD_VALUE
 90
        0
 91
        0
301
----
 98
        4
  0
FIELD
  5
48D
330
48C
100
AcDbField
  1
AcVar
  2
\AcVar ViewSectionStartId
 90
        0
 97
        0
  4

 91
       63
 92
        0
 94
       43
 95
        2
 96
        0
300

 93
        1
  6
Variable
 90
        4
  1
ViewSectionStartId
  7
ACFD_FIELD_VALUE
 90
        0
 91
        0
301
----
 98
        4
  0
FIELD
  5
48E
330
48C
100
AcDbField
  1
AcVar
  2
\AcVar ViewSectionEndId
 90
        0
 97
        0
  4

 91
       63
 92
        0
 94
       43
 95
        2
 96
        0
300

 93
        1
  6
Variable
 90
        4
  1
ViewSectionEndId
  7
ACFD_FIELD_VALUE
 90
        0
 91
        0
301
----
 98
        4
  0
FIELD
  5
498
330
497
100
AcDbField
  1
AcVar
  2
\AcVar ViewSectionStartId
 90
        0
 97
        0
  4

 91
       63
 92
        0
 94
       43
 95
        2
 96
        0
300

 93
        1
  6
Variable
 90
        4
  1
ViewSectionStartId
  7
ACFD_FIELD_VALUE
 90
        0
 91
        0
301
----
 98
        4
  0
FIELD
  5
499
330
497
100
AcDbField
  1
AcVar
  2
\AcVar ViewSectionEndId
 90
        0
 97
        0
  4

 91
       63
 92
        0
 94
       43
 95
        2
 96
        0
300

 93
        1
  6
Variable
 90
        4
  1
ViewSectionEndId
  7
ACFD_FIELD_VALUE
 90
        0
 91
        0
301
----
 98
        4
  0
FIELD
  5
49F
330
49E
100
AcDbField
  1
AcVar
  2
\AcVar ViewSectionStartId
 90
        0
 97
        0
  4

 91
       63
 92
        0
 94
       43
 95
        2
 96
        0
300

 93
        1
  6
Variable
 90
        4
  1
ViewSectionStartId
  7
ACFD_FIELD_VALUE
 90
        0
 91
        0
301
----
 98
        4
  0
FIELD
  5
4A0
330
49E
100
AcDbField
  1
AcVar
  2
\AcVar ViewSectionEndId
 90
        0
 97
        0
  4

 91
       63
 92
        0
 94
       43
 95
        2
 96
        0
300

 93
        1
  6
Variable
 90
        4
  1
ViewSectionEndId
  7
ACFD_FIELD_VALUE
 90
        0
 91
        0
301
----
 98
        4
  0
ENDSEC
  0
EOF
